×

¿Problemas para descargar con Mozilla, EDGE? Deshabilita la opción "Abrir vinculos en una pestaña nueva" tal como lo muestra ésta imagen.

Amos del Universo: Revolución (2024) Temporada 1 NF WEB-DL 1080p Latino

178 vistas

Información de Amos del Universo: Revolución (2024) Temporada 1 NF WEB-DL 1080p Latino

Datos de la película

  • Calidad: WEBDL
  • Audio: Español Latino E-AC3 5.1 Netflix - Ingles E-AC3 5.1 Netflix
  • Subtitulos: Español Latino SRT- FORZADOS SRT
  • Resolución: 1920x1080p
  • Formato: MKV
  • Codec: H.264
  • Encoder: Melkor
  • Mediainfo: Clic para Mostrar Datos Ver
  • Masters of the Universe Revolution S01E01 (2024) NF WEB 1080p Latino.mkv
    Format                      : Matroska
    Format version              : Version 4
    File size                   : 1.13 GiB
    Duration                    : 26 min 31 s
    Overall bit rate mode       : Variable
    Overall bit rate            : 6 077 kb/s
    Movie name                  : Masters of the Universe Revolution S01E01 - Even for Kings CinemaniaHDD.Net
    Encoded date                : UTC 2024-01-30 05:17:50
    Writing application         : mkvmerge v56.1.0 ('My Friend') 64-bit
    Writing library             : libebml v1.4.2 + libmatroska v1.6.4
    Attachments                 : CINEMANIAHD.png
    Site                        : CinemaniaHDD.Net
    Uploader                    : Melkor

    Video
    ID                          : 1
    Format                      : AVC
    Format/Info                 : Advanced Video Codec
    Format profile              : Main@L4
    Format settings             : CABAC / 3 Ref Frames
    Format settings, CABAC      : Yes
    Format settings, Reference  : 3 frames
    Codec ID                    : V_MPEG4/ISO/AVC
    Duration                    : 26 min 31 s
    Bit rate mode               : Variable
    Bit rate                    : 5 000 kb/s
    Maximum bit rate            : 7 500 kb/s
    Width                       : 1 920 pixels
    Height                      : 1 080 pixels
    Display aspect ratio        : 16:9
    Frame rate mode             : Constant
    Frame rate                  : 24.000 FPS
    Color space                 : YUV
    Chroma subsampling          : 4:2:0
    Bit depth                   : 8 bits
    Scan type                   : Progressive
    Bits/(Pixel*Frame)          : 0.100
    Stream size                 : 910 MiB (79%)
    Title                       : WEB HD1080p [CinemaniaHDD]
    Writing library             : x264 core 148 r2727 7d026e8
    Encoding settings           : cabac=1 / ref=3 / deblock=1:0:0 / analyse=0x1:0x111 / me=umh / subme=10 / psy=1 / psy_rd=1.00:0.00 / mixed_ref=1 / me_range=24 / chroma_me=1 / trellis=2 / 8x8dct=0 / cqm=0 / deadzone=21,11 / fast_pskip=1 / chroma_qp_offset=-2 / threads=6 / lookahead_threads=1 / sliced_threads=0 / nr=0 / decimate=1 / interlaced=0 / bluray_compat=0 / stitchable=1 / constrained_intra=0 / bframes=2 / b_pyramid=0 / b_adapt=2 / b_bias=0 / direct=3 / weightb=1 / open_gop=0 / weightp=2 / keyint=240 / keyint_min=121 / scenecut=0 / intra_refresh=0 / rc_lookahead=48 / rc=2pass / mbtree=1 / bitrate=5000 / ratetol=1.0 / qcomp=0.50 / qpmin=6 / qpmax=51 / qpstep=4 / cplxblur=20.0 / qblur=0.5 / vbv_maxrate=7500 / vbv_bufsize=10000 / nal_hrd=vbr / filler=0 / ip_ratio=1.40 / aq=1:1.00
    Default                     : Yes
    Forced                      : No

    Audio #1
    ID                          : 2
    Format                      : E-AC-3
    Format/Info                 : Enhanced AC-3
    Commercial name             : Dolby Digital Plus
    Codec ID                    : A_EAC3
    Duration                    : 26 min 31 s
    Bit rate mode               : Constant
    Bit rate                    : 640 kb/s
    Channel(s)                  : 6 channels
    Channel layout              : L R C LFE Ls Rs
    Sampling rate               : 48.0 kHz
    Frame rate                  : 31.250 FPS (1536 SPF)
    Compression mode            : Lossy
    Stream size                 : 121 MiB (11%)
    Title                       : Español Latino [CinemaniaHDD]
    Language                    : Spanish
    Service kind                : Complete Main
    Default                     : Yes
    Forced                      : No

    Audio #2
    ID                          : 3
    Format                      : E-AC-3
    Format/Info                 : Enhanced AC-3
    Commercial name             : Dolby Digital Plus
    Codec ID                    : A_EAC3
    Duration                    : 26 min 31 s
    Bit rate mode               : Constant
    Bit rate                    : 640 kb/s
    Channel(s)                  : 6 channels
    Channel layout              : L R C LFE Ls Rs
    Sampling rate               : 48.0 kHz
    Frame rate                  : 31.250 FPS (1536 SPF)
    Compression mode            : Lossy
    Stream size                 : 121 MiB (11%)
    Title                       : Ingles [CinemaniaHDD]
    Language                    : English
    Service kind                : Complete Main
    Default                     : No
    Forced                      : No

    Text #1
    ID                          : 4
    Format                      : UTF-8
    Codec ID                    : S_TEXT/UTF8
    Codec ID/Info               : UTF-8 Plain Text
    Duration                    : 56 s 500 ms
    Bit rate                    : 10 b/s
    Count of elements           : 3
    Stream size                 : 76.0 Bytes (0%)
    Title                       : Forzados-SRT [CinemaniaHDD]
    Language                    : Spanish
    Default                     : Yes
    Forced                      : No

    Text #2
    ID                          : 5
    Format                      : UTF-8
    Codec ID                    : S_TEXT/UTF8
    Codec ID/Info               : UTF-8 Plain Text
    Duration                    : 25 min 29 s
    Bit rate                    : 53 b/s
    Count of elements           : 307
    Stream size                 : 10.0 KiB (0%)
    Title                       : Español-SRT [CinemaniaHDD]
    Language                    : Spanish
    Default                     : No
    Forced                      : No

    Text #3
    ID                          : 6
    Format                      : UTF-8
    Codec ID                    : S_TEXT/UTF8
    Codec ID/Info               : UTF-8 Plain Text
    Duration                    : 24 min 39 s
    Bit rate                    : 58 b/s
    Count of elements           : 368
    Stream size                 : 10.6 KiB (0%)
    Title                       : Ingles-SRT [CinemaniaHDD]
    Language                    : English
    Default                     : No
    Forced                      : No

  • Peso: 1.2 GiB -- 5.58 GiB -- 5 Chapters

Sinopsis

Descargar Amos del Universo: Revolución (2024) Temporada 1 NF WEB-DL 1080p Latino. ¡La tecnología se enfrenta a la magia! He‑Man y sus amigos luchan contra las fuerzas siniestras de Skeletor en una batalla épica por el corazón de Eternia.

Ficha técnica

Video trailer de la película

Enlaces de descarga

Rip de Bluray

Descargar Amos del Universo: Revolución (2024) Temporada 1 NF WEB-DL 1080p Latino




Aportes de DPeliculasHDmega la pass es:dpeliculashdmega.org Aportes de CinemaniaHD la pass es:cinemaniahdd.com Aportes recientes:cinemaniahdd.net

Películas relacionadas

descargar Amos del Universo: Revolución (2024) Temporada 1 NF WEB-DL 1080p Latino WEBDL 1080p gratis, Amos del Universo: Revolución (2024) Temporada 1 NF WEB-DL 1080p Latino WEBDL mega 1 link, Amos del Universo: Revolución (2024) Temporada 1 NF WEB-DL 1080p Latino WEBDL serie completa, descargar Amos del Universo: Revolución (2024) Temporada 1 NF WEB-DL 1080p Latino WEBDL gratis en mega.

Amos del Universo: Revolución (2024) Temporada 1 NF WEB-DL 1080p Latino pelicula full hd, Amos del Universo: Revolución (2024) Temporada 1 NF WEB-DL 1080p Latino mega latino, Amos del Universo: Revolución (2024) Temporada 1 NF WEB-DL 1080p Latino 4k latino, Amos del Universo: Revolución (2024) Temporada 1 NF WEB-DL 1080p Latino pelicula completa, Amos del Universo: Revolución (2024) Temporada 1 NF WEB-DL 1080p Latino descargar gratis, descargar Amos del Universo: Revolución (2024) Temporada 1 NF WEB-DL 1080p Latino pelicula latino, Amos del Universo: Revolución (2024) Temporada 1 NF WEB-DL 1080p Latino 1 link mega, Amos del Universo: Revolución (2024) Temporada 1 NF WEB-DL 1080p Latino 1 link google drive, Amos del Universo: Revolución (2024) Temporada 1 NF WEB-DL 1080p Latino hd 1080p latino.
Comentarios 0