×

¿Problemas para descargar con Mozilla, EDGE? Deshabilita la opción "Abrir vinculos en una pestaña nueva" tal como lo muestra ésta imagen.

Master (2022) AMZN WEB-DL 1080p Latino

253 vistas

Información de Master (2022) AMZN WEB-DL 1080p Latino

Datos de la película

  • Calidad: 1080p
  • Audio: Español Latino AC3 5.1 WEB-DL - Ingles AC3 5.1 WEB-DL
  • Subtitulos: Español Latino SRT- FORZADOS SRT
  • Resolución: 1920x800
  • Formato: MKV
  • Codec: H.264
  • Encoder: cinemaniahdd
  • Mediainfo: Clic para Mostrar Datos Ver
  • Master (2022) AMZN WEB-DL 1080P Latino [CNMNHDD].mkv
    Format                      : Matroska
    Format version              : Version 4
    File size                   : 5.62 GiB
    Duration                    : 1 h 39 min
    Overall bit rate            : 8 120 kb/s
    Movie name                  : Master [1080p] [CNMNHDD]
    Encoded date                : UTC 2022-03-18 00:37:13
    Writing application         : mkvmerge v56.1.0 ('My Friend') 64-bit
    Writing library             : libebml v1.4.2 + libmatroska v1.6.4

    Video
    ID                          : 1
    Format                      : AVC
    Format/Info                 : Advanced Video Codec
    Format profile              : High@L4
    Format settings             : CABAC / 4 Ref Frames
    Format settings, CABAC      : Yes
    Format settings, Reference  : 4 frames
    Codec ID                    : V_MPEG4/ISO/AVC
    Duration                    : 1 h 39 min
    Bit rate mode               : Constant
    Bit rate                    : 6 197 kb/s
    Nominal bit rate            : 10 000 kb/s
    Width                       : 1 920 pixels
    Height                      : 800 pixels
    Display aspect ratio        : 2.40:1
    Frame rate mode             : Constant
    Frame rate                  : 23.976 (24000/1001) FPS
    Color space                 : YUV
    Chroma subsampling          : 4:2:0
    Bit depth                   : 8 bits
    Scan type                   : Progressive
    Bits/(Pixel*Frame)          : 0.168
    Stream size                 : 4.29 GiB (76%)
    Title                       : CinemaniaHDD
    Default                     : Yes
    Forced                      : No
    Color range                 : Limited
    Color primaries             : BT.709
    Transfer characteristics    : BT.709
    Matrix coefficients         : BT.709

    Audio #1
    ID                          : 2
    Format                      : AC-3
    Format/Info                 : Audio Coding 3
    Commercial name             : Dolby Digital
    Codec ID                    : A_AC3
    Duration                    : 1 h 39 min
    Bit rate mode               : Constant
    Bit rate                    : 640 kb/s
    Channel(s)                  : 6 channels
    Channel layout              : L R C LFE Ls Rs
    Sampling rate               : 48.0 kHz
    Frame rate                  : 31.250 FPS (1536 SPF)
    Compression mode            : Lossy
    Stream size                 : 454 MiB (8%)
    Title                       : Español latino [CinemaniaHDD]
    Language                    : Spanish
    Service kind                : Complete Main
    Default                     : Yes
    Forced                      : Yes

    Audio #2
    ID                          : 3
    Format                      : E-AC-3
    Format/Info                 : Enhanced AC-3
    Commercial name             : Dolby Digital Plus
    Codec ID                    : A_EAC3
    Duration                    : 1 h 39 min
    Bit rate mode               : Constant
    Bit rate                    : 640 kb/s
    Channel(s)                  : 6 channels
    Channel layout              : L R C LFE Ls Rs
    Sampling rate               : 48.0 kHz
    Frame rate                  : 31.250 FPS (1536 SPF)
    Compression mode            : Lossy
    Stream size                 : 454 MiB (8%)
    Title                       : Español latino / E-AC3 [CinemaniaHDD]
    Language                    : Spanish
    Service kind                : Complete Main
    Default                     : No
    Forced                      : No

    Audio #3
    ID                          : 4
    Format                      : E-AC-3
    Format/Info                 : Enhanced AC-3
    Commercial name             : Dolby Digital Plus
    Codec ID                    : A_EAC3
    Duration                    : 1 h 39 min
    Bit rate mode               : Constant
    Bit rate                    : 640 kb/s
    Channel(s)                  : 6 channels
    Channel layout              : L R C LFE Ls Rs
    Sampling rate               : 48.0 kHz
    Frame rate                  : 31.250 FPS (1536 SPF)
    Compression mode            : Lossy
    Stream size                 : 454 MiB (8%)
    Title                       : Inglés [CinemaniaHDD]
    Language                    : English
    Service kind                : Complete Main
    Default                     : No
    Forced                      : No

    Text #1
    ID                          : 5
    Format                      : UTF-8
    Codec ID                    : S_TEXT/UTF8
    Codec ID/Info               : UTF-8 Plain Text
    Duration                    : 1 h 17 min
    Bit rate                    : 2 b/s
    Count of elements           : 42
    Stream size                 : 1.46 KiB (0%)
    Title                       : Forzados [CinemaniaHDD]
    Language                    : Spanish
    Default                     : Yes
    Forced                      : Yes

    Text #2
    ID                          : 6
    Format                      : UTF-8
    Codec ID                    : S_TEXT/UTF8
    Codec ID/Info               : UTF-8 Plain Text
    Duration                    : 1 h 36 min
    Bit rate                    : 39 b/s
    Count of elements           : 975
    Stream size                 : 27.7 KiB (0%)
    Title                       : Español latino [CinemaniaHDD]
    Language                    : Spanish
    Default                     : No
    Forced                      : No

    Menu
    00:00:00.000                : Amazon Studios
    00:00:25.000                : Scene 2
    00:07:39.000                : Scene 3
    00:10:47.000                : Scene 4
    00:13:29.000                : Scene 5
    00:14:58.000                : Scene 6
    00:17:22.000                : Scene 7
    00:18:35.000                : Scene 8
    00:19:19.000                : Scene 9
    00:21:21.000                : Scene 10
    00:23:04.000                : Scene 11
    00:24:22.000                : Scene 12
    00:26:21.000                : Scene 13
    00:28:48.000                : Scene 14
    00:33:38.000                : Scene 15
    00:36:24.000                : Scene 16
    00:41:10.000                : Scene 17
    00:43:25.000                : Scene 18
    00:44:25.000                : Scene 19
    00:46:36.000                : Scene 20
    00:52:12.000                : Scene 21
    00:54:36.000                : Scene 22
    00:56:24.000                : Scene 23
    00:57:51.000                : Scene 24
    01:00:49.000                : Scene 25
    01:02:50.000                : Scene 26
    01:03:54.000                : Scene 27
    01:04:58.000                : Scene 28
    01:07:52.000                : Scene 29
    01:12:22.000                : Scene 30
    01:14:55.000                : Scene 31
    01:18:46.000                : Scene 32
    01:25:45.000                : Scene 33
    01:28:58.000                : Scene 34
    01:30:15.000                : End Credits

     

  • Peso: 5.62 GiB

Sinopsis

Tres mujeres luchan por encontrar su lugar en una universidad de élite del noreste tan antigua como el país. Cuando los ataques racistas anónimos tienen como objetivo a una estudiante negra de primer año, que insiste en que los fantasmas del pasado la persiguen, cada mujer debe determinar donde se encuentra la verdadera amenaza.

Ficha técnica

Video trailer de la película

Enlaces de descarga

Rip de Bluray

Descargar Master (2022) AMZN WEB-DL 1080p Latino




Aportes de DPeliculasHDmega la pass es:dpeliculashdmega.org Aportes de CinemaniaHD la pass es:cinemaniahdd.com
Guardado en : Drama , Misterio , Terror

Películas relacionadas

  • Paradise Highway (2022) HD 1080p Latino

    Paradise Highway (2022) HD 1080p Latino

    2022
    Paradise Highway (2022) HD 1080p Latino

    1h 55m 2022

    Descargar Paradise Highway (2022) HD 1080p Latino. Un camionero se ha visto obligado a pasar de contrabando...

    Director: Anna Gutto

    Género: Crimen

    Actores: Xavier Scott Evans

  • Paradise Highway (2022) PLACEBO Full HD 1080p Latino

    Paradise Highway (2022) PLACEBO Full HD 1080p Latino

    2022
    Paradise Highway (2022) PLACEBO Full HD 1080p Latino

    1h 55m 2022

    Descargar Paradise Highway (2022) PLACEBO Full HD 1080p Latino. Un camionero se ha visto obligado a pasar...

    Director: Anna Gutto

    Género: Crimen

    Actores: Xavier Scott Evans

  • Paradise Highway (2022) REMUX 1080p Latino

    Paradise Highway (2022) REMUX 1080p Latino

    2022
    Paradise Highway (2022) REMUX 1080p Latino

    1h 55m 2022

    Descargar Paradise Highway (2022) REMUX 1080p Latino. Un camionero se ha visto obligado a pasar de contrabando...

    Director: Anna Gutto

    Género: Crimen

    Actores: Xavier Scott Evans

descargar Master (2022) AMZN WEB-DL 1080p Latino 1080p 1080p gratis, Master (2022) AMZN WEB-DL 1080p Latino 1080p mega 1 link, Master (2022) AMZN WEB-DL 1080p Latino 1080p pelicula completa, descargar Master (2022) AMZN WEB-DL 1080p Latino 1080p gratis en mega.

Master (2022) AMZN WEB-DL 1080p Latino pelicula full hd, Master (2022) AMZN WEB-DL 1080p Latino mega latino, Master (2022) AMZN WEB-DL 1080p Latino 4k latino, Master (2022) AMZN WEB-DL 1080p Latino pelicula completa, Master (2022) AMZN WEB-DL 1080p Latino descargar gratis, descargar Master (2022) AMZN WEB-DL 1080p Latino pelicula latino, Master (2022) AMZN WEB-DL 1080p Latino 1 link mega, Master (2022) AMZN WEB-DL 1080p Latino 1 link google drive, Master (2022) AMZN WEB-DL 1080p Latino hd 1080p latino.
Comentarios 0