×

¿Problemas para descargar con Mozilla, EDGE? Deshabilita la opción "Abrir vinculos en una pestaña nueva" tal como lo muestra ésta imagen.

MASH (1970) REMUX 1080p Latino – CMHDD

197 vistas

Información de MASH (1970) REMUX 1080p Latino – CMHDD

Datos de la película

  • Calidad:
  • Audio: Español Latino AC3 2.0 BLURAY - Ingles DTS 5.1 BLURAY
  • Subtitulos: Español Latino PGS
  • Resolución: 1920x1080p
  • Formato: MKV
  • Codec: H.264
  • Encoder: Dracarys
  • Mediainfo: Clic para Mostrar Datos Ver
  • Format                      : Matroska
    Format version              : Version 4
    File size                   : 26.6 GiB
    Duration                    : 1 h 55 min
    Overall bit rate mode       : Variable
    Overall bit rate            : 32.9 Mb/s
    Movie name                  : MASH (1970) REMUX 1080p Latino - CMHDD
    Encoded date                : UTC 2023-06-06 04:21:11
    Writing application         : mkvmerge v47.0.0 ('Black Flag') 64-bit
    Writing library             : libebml v1.3.10 + libmatroska v1.5.2
    Cover                       : Yes
    Attachments                 : cover.jpg

    Video
    ID                          : 1
    ID in the original source m : 4113 (0x1011)
    Format                      : AVC
    Format/Info                 : Advanced Video Codec
    Format profile              : High@L4.1
    Format settings             : CABAC / 4 Ref Frames
    Format settings, CABAC      : Yes
    Format settings, Reference  : 4 frames
    Codec ID                    : V_MPEG4/ISO/AVC
    Duration                    : 1 h 55 min
    Bit rate mode               : Variable
    Bit rate                    : 28.9 Mb/s
    Maximum bit rate            : 33.2 Mb/s
    Width                       : 1 920 pixels
    Height                      : 1 080 pixels
    Display aspect ratio        : 16:9
    Frame rate mode             : Constant
    Frame rate                  : 23.976 (24000/1001) FPS
    Color space                 : YUV
    Chroma subsampling          : 4:2:0
    Bit depth                   : 8 bits
    Scan type                   : Progressive
    Bits/(Pixel*Frame)          : 0.582
    Stream size                 : 23.4 GiB (88%)
    Default                     : Yes
    Forced                      : No
    Color range                 : Limited
    Color primaries             : BT.709
    Transfer characteristics    : BT.709
    Matrix coefficients         : BT.709
    Original source medium      : Blu-ray

    Audio #1
    ID                          : 2
    ID in the original source m : 4352 (0x1100)
    Format                      : DTS XLL
    Format/Info                 : Digital Theater Systems
    Commercial name             : DTS-HD Master Audio
    Codec ID                    : A_DTS
    Duration                    : 1 h 55 min
    Bit rate mode               : Variable
    Bit rate                    : 3 266 kb/s
    Channel(s)                  : 6 channels
    Channel layout              : C L R Ls Rs LFE
    Sampling rate               : 48.0 kHz
    Frame rate                  : 93.750 FPS (512 SPF)
    Bit depth                   : 24 bits
    Compression mode            : Lossless
    Stream size                 : 2.64 GiB (10%)
    Language                    : English
    Default                     : No
    Forced                      : No
    Original source medium      : Blu-ray

    Audio #2
    ID                          : 3
    ID in the original source m : 4353 (0x1101)
    Format                      : AC-3
    Format/Info                 : Audio Coding 3
    Commercial name             : Dolby Digital
    Codec ID                    : A_AC3
    Duration                    : 1 h 55 min
    Bit rate mode               : Constant
    Bit rate                    : 224 kb/s
    Channel(s)                  : 2 channels
    Channel layout              : L R
    Sampling rate               : 48.0 kHz
    Frame rate                  : 31.250 FPS (1536 SPF)
    Compression mode            : Lossy
    Stream size                 : 186 MiB (1%)
    Language                    : English
    Service kind                : Complete Main
    Default                     : No
    Forced                      : No
    Original source medium      : Blu-ray

    Audio #3
    ID                          : 4
    ID in the original source m : 4357 (0x1105)
    Format                      : AC-3
    Format/Info                 : Audio Coding 3
    Commercial name             : Dolby Digital
    Codec ID                    : A_AC3
    Duration                    : 1 h 55 min
    Bit rate mode               : Constant
    Bit rate                    : 448 kb/s
    Channel(s)                  : 6 channels
    Channel layout              : L R C LFE Ls Rs
    Sampling rate               : 48.0 kHz
    Frame rate                  : 31.250 FPS (1536 SPF)
    Compression mode            : Lossy
    Stream size                 : 371 MiB (1%)
    Language                    : Spanish
    Service kind                : Complete Main
    Default                     : Yes
    Forced                      : No
    Original source medium      : Blu-ray

    Text
    ID                          : 5
    ID in the original source m : 4611 (0x1203)
    Format                      : PGS
    Muxing mode                 : zlib
    Codec ID                    : S_HDMV/PGS
    Codec ID/Info               : Picture based subtitle format used on BDs/HD-DVDs
    Duration                    : 1 h 52 min
    Bit rate                    : 59.6 kb/s
    Frame rate                  : 0.500 FPS
    Count of elements           : 3378
    Stream size                 : 48.0 MiB (0%)
    Language                    : Spanish
    Default                     : No
    Forced                      : No
    Original source medium      : Blu-ray

    Menu
    00:00:00.000                : en:Capítulo 01
    00:03:04.684                : en:Capítulo 02
    00:05:06.973                : en:Capítulo 03
    00:07:09.512                : en:Capítulo 04
    00:11:00.493                : en:Capítulo 05
    00:13:01.864                : en:Capítulo 06
    00:14:26.115                : en:Capítulo 07
    00:19:29.751                : en:Capítulo 08
    00:24:50.238                : en:Capítulo 09
    00:27:48.583                : en:Capítulo 10
    00:32:00.293                : en:Capítulo 11
    00:36:56.172                : en:Capítulo 12
    00:38:01.988                : en:Capítulo 13
    00:41:04.295                : en:Capítulo 14
    00:45:28.517                : en:Capítulo 15
    00:47:28.470                : en:Capítulo 16
    00:51:09.483                : en:Capítulo 17
    00:55:39.002                : en:Capítulo 18
    00:57:51.676                : en:Capítulo 19
    01:02:57.482                : en:Capítulo 20
    01:06:46.002                : en:Capítulo 21
    01:09:10.563                : en:Capítulo 22
    01:14:29.631                : en:Capítulo 23
    01:15:54.424                : en:Capítulo 24
    01:17:17.507                : en:Capítulo 25
    01:19:47.032                : en:Capítulo 26
    01:22:18.224                : en:Capítulo 27
    01:24:12.505                : en:Capítulo 28
    01:26:16.588                : en:Capítulo 29
    01:28:41.899                : en:Capítulo 30
    01:30:03.898                : en:Capítulo 31
    01:30:57.410                : en:Capítulo 32
    01:35:18.421                : en:Capítulo 33
    01:37:19.041                : en:Capítulo 34
    01:42:21.927                : en:Capítulo 35
    01:43:18.275                : en:Capítulo 36
    01:45:34.661                : en:Capítulo 37
    01:48:54.861                : en:Capítulo 38
    01:52:00.171                : en:Capítulo 39
    01:54:41.583                : en:Capítulo 40

  • Peso: 26.6 GiB

Sinopsis

M.A.S.H. narra las aventuras de dos cirujanos del ejército destinados a una unidad móvil médica en Corea durante la guerra. Tanto ellos como su equipo de enfermeras se toman el trabajo muy en serio pero, en su tiempo libre, las bromas constantes y la ironía hacen más llevadera la situación.

Ficha técnica

Video trailer de la película

Enlaces de descarga

Rip de Bluray

Descargar MASH (1970) REMUX 1080p Latino – CMHDD


Aportes de DPeliculasHDmega la pass es:dpeliculashdmega.org Aportes de CinemaniaHD la pass es:cinemaniahdd.com Aportes recientes:cinemaniahdd.net
Guardado en : Bélica , Comedia , Drama

Películas relacionadas

descargar MASH (1970) REMUX 1080p Latino – CMHDD 1080p gratis, MASH (1970) REMUX 1080p Latino – CMHDD mega 1 link, MASH (1970) REMUX 1080p Latino – CMHDD pelicula completa, descargar MASH (1970) REMUX 1080p Latino – CMHDD gratis en mega.

MASH (1970) REMUX 1080p Latino – CMHDD pelicula full hd, MASH (1970) REMUX 1080p Latino – CMHDD mega latino, MASH (1970) REMUX 1080p Latino – CMHDD 4k latino, MASH (1970) REMUX 1080p Latino – CMHDD pelicula completa, MASH (1970) REMUX 1080p Latino – CMHDD descargar gratis, descargar MASH (1970) REMUX 1080p Latino – CMHDD pelicula latino, MASH (1970) REMUX 1080p Latino – CMHDD 1 link mega, MASH (1970) REMUX 1080p Latino – CMHDD 1 link google drive, MASH (1970) REMUX 1080p Latino – CMHDD hd 1080p latino.
Comentarios 0