×

¿Problemas para descargar con Mozilla, EDGE? Deshabilita la opción "Abrir vinculos en una pestaña nueva" tal como lo muestra ésta imagen.

Más fuerte que el destino (2017) REMUX 1080p Latino

159 vistas

Información de Más fuerte que el destino (2017) REMUX 1080p Latino

Datos de la película

  • Calidad: Full 1080p
  • Audio: Español Latino AC3 5.1 WEB-DL - Ingles DTS 5.1 BLURAY
  • Subtitulos: Español Latino SRT- FORZADOS SRT
  • Resolución: 1920x1080p
  • Formato: MKV
  • Codec: H.264
  • Encoder: Melkor
  • Mediainfo: Clic para Mostrar Datos Ver
  • Mas fuerte que el destino (2017) REMUX 1080p Latino.mkv
    Format                      : Matroska
    Format version              : Version 4
    File size                   : 28.6 GiB
    Duration                    : 1 h 59 min
    Overall bit rate mode       : Variable
    Overall bit rate            : 34.2 Mb/s
    Movie name                  : Stronger (2017) CinemaniaHDD.Net
    Encoded date                : UTC 2023-06-06 09:54:03
    Writing application         : mkvmerge v56.1.0 ('My Friend') 64-bit
    Writing library             : libebml v1.4.2 + libmatroska v1.6.4
    Attachments                 : CINEMANIAHD.png
    Site                        : CinemaniaHDD.Net
    Uploader                    : Melkor

    Video
    ID                          : 1
    Format                      : AVC
    Format/Info                 : Advanced Video Codec
    Format profile              : High@L4.1
    Format settings             : CABAC / 4 Ref Frames
    Format settings, CABAC      : Yes
    Format settings, Reference  : 4 frames
    Codec ID                    : V_MPEG4/ISO/AVC
    Duration                    : 1 h 59 min
    Bit rate mode               : Variable
    Bit rate                    : 29.7 Mb/s
    Maximum bit rate            : 36.0 Mb/s
    Width                       : 1 920 pixels
    Height                      : 1 080 pixels
    Display aspect ratio        : 16:9
    Frame rate mode             : Constant
    Frame rate                  : 23.976 (24000/1001) FPS
    Color space                 : YUV
    Chroma subsampling          : 4:2:0
    Bit depth                   : 8 bits
    Scan type                   : Progressive
    Bits/(Pixel*Frame)          : 0.597
    Stream size                 : 24.8 GiB (87%)
    Title                       : REMUX HD1080p [CinemaniaHDD]
    Default                     : Yes
    Forced                      : Yes

    Audio #1
    ID                          : 2
    Format                      : AC-3
    Format/Info                 : Audio Coding 3
    Commercial name             : Dolby Digital
    Codec ID                    : A_AC3
    Duration                    : 1 h 59 min
    Bit rate mode               : Constant
    Bit rate                    : 640 kb/s
    Channel(s)                  : 6 channels
    Channel layout              : L R C LFE Ls Rs
    Sampling rate               : 48.0 kHz
    Frame rate                  : 31.250 FPS (1536 SPF)
    Compression mode            : Lossy
    Stream size                 : 547 MiB (2%)
    Title                       : Español Latino AC3 [CinemaniaHDD]
    Language                    : Spanish
    Service kind                : Complete Main
    Default                     : Yes
    Forced                      : Yes

    Audio #2
    ID                          : 3
    Format                      : E-AC-3
    Format/Info                 : Enhanced AC-3
    Commercial name             : Dolby Digital Plus
    Codec ID                    : A_EAC3
    Duration                    : 1 h 58 min
    Bit rate mode               : Constant
    Bit rate                    : 640 kb/s
    Channel(s)                  : 6 channels
    Channel layout              : L R C LFE Ls Rs
    Sampling rate               : 48.0 kHz
    Frame rate                  : 31.250 FPS (1536 SPF)
    Compression mode            : Lossy
    Delay relative to video     : 21 s 142 ms
    Stream size                 : 544 MiB (2%)
    Title                       : Español Latino EAC3 [CinemaniaHDD]
    Language                    : Spanish
    Service kind                : Complete Main
    Default                     : No
    Forced                      : No

    Audio #3
    ID                          : 4
    Format                      : DTS XLL
    Format/Info                 : Digital Theater Systems
    Commercial name             : DTS-HD Master Audio
    Codec ID                    : A_DTS
    Duration                    : 1 h 59 min
    Bit rate mode               : Variable
    Bit rate                    : 3 257 kb/s
    Channel(s)                  : 6 channels
    Channel layout              : C L R Ls Rs LFE
    Sampling rate               : 48.0 kHz
    Frame rate                  : 93.750 FPS (512 SPF)
    Bit depth                   : 24 bits
    Compression mode            : Lossless
    Stream size                 : 2.72 GiB (10%)
    Title                       : Ingles [CinemaniaHDD]
    Language                    : English
    Default                     : No
    Forced                      : No

    Text #1
    ID                          : 5
    Format                      : UTF-8
    Codec ID                    : S_TEXT/UTF8
    Codec ID/Info               : UTF-8 Plain Text
    Duration                    : 1 h 34 min
    Bit rate                    : 0 b/s
    Count of elements           : 7
    Stream size                 : 252 Bytes (0%)
    Title                       : Forzados-SRT [CinemaniaHDD]
    Language                    : Spanish
    Default                     : Yes
    Forced                      : Yes

    Text #2
    ID                          : 6
    Format                      : UTF-8
    Codec ID                    : S_TEXT/UTF8
    Codec ID/Info               : UTF-8 Plain Text
    Duration                    : 1 h 52 min
    Bit rate                    : 64 b/s
    Count of elements           : 1884
    Stream size                 : 53.0 KiB (0%)
    Title                       : Español-SRT [CinemaniaHDD]
    Language                    : Spanish
    Default                     : No
    Forced                      : No

    Text #3
    ID                          : 7
    Format                      : UTF-8
    Codec ID                    : S_TEXT/UTF8
    Codec ID/Info               : UTF-8 Plain Text
    Duration                    : 1 h 51 min
    Bit rate                    : 82 b/s
    Count of elements           : 2201
    Stream size                 : 67.4 KiB (0%)
    Title                       : Ingles [CinemaniaHDD]
    Language                    : English
    Default                     : No
    Forced                      : No

    Menu
    00:00:00.000                : 00:00:00.000
    00:10:13.655                : 00:10:13.655
    00:19:40.388                : 00:19:40.388
    00:30:48.555                : 00:30:48.555
    00:40:38.186                : 00:40:38.186
    00:49:52.281                : 00:49:52.281
    01:00:30.669                : 01:00:30.669
    01:08:46.080                : 01:08:46.080
    01:19:07.242                : 01:19:07.242
    01:31:49.379                : 01:31:49.379
    01:40:52.463                : 01:40:52.463
    01:52:20.692                : 01:52:20.692

  • Peso: 28.6 GiB

Sinopsis

Descargar Más fuerte que el destino (2017) REMUX 1080p Latino. Una víctima de los atentados de la maratón de Boston ayuda a la policía a dar con los responsables mientras se recupera del trauma.

Ficha técnica

Video trailer de la película

Enlaces de descarga

Rip de Bluray

Descargar Más fuerte que el destino (2017) REMUX 1080p Latino




Aportes de DPeliculasHDmega la pass es:dpeliculashdmega.org Aportes de CinemaniaHD la pass es:cinemaniahdd.com Aportes recientes:cinemaniahdd.net
Guardado en : Drama , Remux

Películas relacionadas

descargar Más fuerte que el destino (2017) REMUX 1080p Latino Full 1080p 1080p gratis, Más fuerte que el destino (2017) REMUX 1080p Latino Full 1080p mega 1 link, Más fuerte que el destino (2017) REMUX 1080p Latino Full 1080p pelicula completa, descargar Más fuerte que el destino (2017) REMUX 1080p Latino Full 1080p gratis en mega.

Más fuerte que el destino (2017) REMUX 1080p Latino pelicula full hd, Más fuerte que el destino (2017) REMUX 1080p Latino mega latino, Más fuerte que el destino (2017) REMUX 1080p Latino 4k latino, Más fuerte que el destino (2017) REMUX 1080p Latino pelicula completa, Más fuerte que el destino (2017) REMUX 1080p Latino descargar gratis, descargar Más fuerte que el destino (2017) REMUX 1080p Latino pelicula latino, Más fuerte que el destino (2017) REMUX 1080p Latino 1 link mega, Más fuerte que el destino (2017) REMUX 1080p Latino 1 link google drive, Más fuerte que el destino (2017) REMUX 1080p Latino hd 1080p latino.
Comentarios 0