Más Allá De La Luna (2020) NF Web-DL 1080p HDR Latino

188 vistas
1 estrella2 estrellas3 estrellas4 estrellas5 estrellas (Ninguna valoración todavía)
Cargando...

Información de Más Allá De La Luna (2020) NF Web-DL 1080p HDR Latino

Datos de la película

  • Calidad: WEBDL
  • Audio: Español Latino E-AC3 5.1 Netflix - Ingles E-AC3 5.1 Netflix
  • Subtitulos: Español Latino SRT - Ingles SRT
  • Resolución: 1920x1080p
  • Formato: MKV
  • Codec: HEVC
  • Encoder: Melkor
  • Mediainfo: Clic para Mostrar Datos Ver
  • Mas Alla De La Luna (2020) NF WEB 1080p HDR Latino.mkv
    Format                      : Matroska
    Format version              : Version 4
    File size                   : 4.46 GiB
    Duration                    : 1 h 40 min
    Overall bit rate            : 6 361 kb/s
    Movie name                  : Over The Moon (2020) CinemaniaHDD.Net
    Encoded date                : UTC 2020-11-26 05:23:59
    Writing application         : mkvmerge v51.0.0 ('I Wish') 64-bit
    Writing library             : libebml v1.4.0 + libmatroska v1.6.2
    Attachments                 : CINEMANIAHD.png

    Video
    ID                          : 1
    Format                      : HEVC
    Format/Info                 : High Efficiency Video Coding
    Format profile              : Main 10@L4@Main
    HDR format                  : SMPTE ST 2086, HDR10 compatible
    Codec ID                    : V_MPEGH/ISO/HEVC
    Duration                    : 1 h 35 min
    Bit rate                    : 4 534 kb/s
    Width                       : 1 920 pixels
    Height                      : 1 080 pixels
    Display aspect ratio        : 16:9
    Frame rate mode             : Constant
    Frame rate                  : 24.000 FPS
    Color space                 : YUV
    Chroma subsampling          : 4:2:0 (Type 2)
    Bit depth                   : 10 bits
    Bits/(Pixel*Frame)          : 0.091
    Stream size                 : 3.02 GiB (68%)
    Title                       : WEB HD1080p HDR [CinemaniaHDD]
    Default                     : Yes
    Forced                      : Yes
    Color range                 : Limited
    Color primaries             : BT.2020
    Transfer characteristics    : PQ
    Matrix coefficients         : BT.2020 non-constant
    Mastering display color pri : Display P3
    Mastering display luminance : min: 0.0001 cd/m2, max: 1000 cd/m2
    Maximum Content Light Level : 723 cd/m2
    Maximum Frame-Average Light : 229 cd/m2

    Audio #1
    ID                          : 2
    Format                      : E-AC-3
    Format/Info                 : Enhanced AC-3
    Commercial name             : Dolby Digital Plus
    Codec ID                    : A_EAC3
    Duration                    : 1 h 40 min
    Bit rate mode               : Constant
    Bit rate                    : 640 kb/s
    Channel(s)                  : 6 channels
    Channel layout              : L R C LFE Ls Rs
    Sampling rate               : 48.0 kHz
    Frame rate                  : 31.250 FPS (1536 SPF)
    Compression mode            : Lossy
    Stream size                 : 459 MiB (10%)
    Title                       : Español Latino [CinemaniaHDD]
    Language                    : Spanish
    Service kind                : Complete Main
    Default                     : Yes
    Forced                      : Yes

    Audio #2
    ID                          : 3
    Format                      : E-AC-3 JOC
    Format/Info                 : Enhanced AC-3 with Joint Object Coding
    Commercial name             : Dolby Digital Plus with Dolby Atmos
    Codec ID                    : A_EAC3
    Duration                    : 1 h 40 min
    Bit rate mode               : Constant
    Bit rate                    : 768 kb/s
    Channel(s)                  : 6 channels
    Channel layout              : L R C LFE Ls Rs
    Sampling rate               : 48.0 kHz
    Frame rate                  : 31.250 FPS (1536 SPF)
    Compression mode            : Lossy
    Stream size                 : 551 MiB (12%)
    Title                       : Ingles [CinemaniaHDD]
    Language                    : English
    Service kind                : Complete Main
    Default                     : No
    Forced                      : No
    Complexity index            : 16
    Number of dynamic objects   : 15
    Bed channel count           : 1 channel
    Bed channel configuration   : LFE

    Audio #3
    ID                          : 4
    Format                      : AC-3
    Format/Info                 : Audio Coding 3
    Commercial name             : Dolby Digital
    Codec ID                    : A_AC3
    Duration                    : 1 h 40 min
    Bit rate mode               : Constant
    Bit rate                    : 640 kb/s
    Channel(s)                  : 6 channels
    Channel layout              : L R C LFE Ls Rs
    Sampling rate               : 48.0 kHz
    Frame rate                  : 31.250 FPS (1536 SPF)
    Compression mode            : Lossy
    Stream size                 : 459 MiB (10%)
    Title                       : Español Latino AC3[CinemaniaHDD]
    Language                    : Spanish
    Service kind                : Complete Main
    Default                     : No
    Forced                      : No

    Text #1
    ID                          : 5
    Format                      : UTF-8
    Codec ID                    : S_TEXT/UTF8
    Codec ID/Info               : UTF-8 Plain Text
    Duration                    : 1 h 25 min
    Bit rate                    : 0 b/s
    Count of elements           : 4
    Stream size                 : 101 Bytes (0%)
    Title                       : Forzados-SRT [CinemaniaHDD]
    Language                    : Spanish
    Default                     : Yes
    Forced                      : No

    Text #2
    ID                          : 6
    Format                      : UTF-8
    Codec ID                    : S_TEXT/UTF8
    Codec ID/Info               : UTF-8 Plain Text
    Duration                    : 1 h 25 min
    Bit rate                    : 47 b/s
    Count of elements           : 1064
    Stream size                 : 29.7 KiB (0%)
    Title                       : Español-SRT [CinemaniaHDD]
    Language                    : Spanish
    Default                     : No
    Forced                      : No

    Text #3
    ID                          : 7
    Format                      : UTF-8
    Codec ID                    : S_TEXT/UTF8
    Codec ID/Info               : UTF-8 Plain Text
    Duration                    : 1 h 29 min
    Bit rate                    : 62 b/s
    Count of elements           : 1352
    Stream size                 : 41.1 KiB (0%)
    Title                       : Ingles-SRT [CinemaniaHDD]
    Language                    : English
    Default                     : No
    Forced                      : No

  • Peso: 4.46 GiB

Sinopsis

Descargar Más Allá De La Luna (2020) NF Web-DL 1080p HDR Latino. Una niña inteligente, decidida y enamorada de la ciencia construye un cohete para viajar a la Luna y demostrar la existencia de una legendaria diosa. Allí la pequeña, de nombre Fei Fei, se verá envuelta en una inesperada aventura y descubrirá un enigmático mundo de criaturas fantásticas.

Ficha técnica

Video trailer de la película

Enlaces de descarga

Rip de Bluray

Descargar Más Allá De La Luna (2020) NF Web-DL 1080p HDR Latino




Aportes de DPeliculasHDmega la pass es:dpeliculashdmega.org Aportes de CinemaniaHD la pass es:cinemaniahdd.com

Películas relacionadas

  • Howard the Duck (1986) REMUX 1080p Latino – CMHDD

    Howard the Duck (1986) REMUX 1080p Latino – CMHDD

    1986
    Howard the Duck (1986) REMUX 1080p Latino – CMHDD

    0.0 1h 51m 1986

    Desde un lejano planeta, y debido a un error de un laboratorio espacial, llega a La Tierra teletransportado...

    Director: Willard Huyck

    Género: Ciencia ficción

    Actores: Wood Moy

  • Space Jam (1996) REMUX 1080p Latino – CMHDD

    Space Jam (1996) REMUX 1080p Latino – CMHDD

    1996
    Space Jam (1996) REMUX 1080p Latino – CMHDD

    0.0 1h 27m 1996

    Bugs Bunny y su equipo desafían a los Nerdlucks (un grupo de pequeños extraterrestres) a un partido...

    Director: Pamela Cederquist

    Género: Animación

    Actores: William G. Schilling

  • Blood Red Sky (2021) NF WEB-DL 1080p Latino

    Blood Red Sky (2021) NF WEB-DL 1080p Latino

    2021
    Blood Red Sky (2021) NF WEB-DL 1080p Latino

    5.0 2h 1m 2021

    Una mujer con una misteriosa enfermedad sanguínea se ve obligada a entrar en acción cuando un grupo...

    Director: Peter Thorwarth

    Género: Acción

    Actores: Wolfgang Michael

Más Allá De La Luna (2020) NF Web-DL 1080p HDR Latino pelicula full hd, Más Allá De La Luna (2020) NF Web-DL 1080p HDR Latino mega latino, Más Allá De La Luna (2020) NF Web-DL 1080p HDR Latino 4k latino, Más Allá De La Luna (2020) NF Web-DL 1080p HDR Latino pelicula completa, Más Allá De La Luna (2020) NF Web-DL 1080p HDR Latino descargar gratis, descargar Más Allá De La Luna (2020) NF Web-DL 1080p HDR Latino pelicula latino, Más Allá De La Luna (2020) NF Web-DL 1080p HDR Latino 1 link mega, Más Allá De La Luna (2020) NF Web-DL 1080p HDR Latino 1 link google drive, Más Allá De La Luna (2020) NF Web-DL 1080p HDR Latino hd 1080p latino.
Comentarios 0