Mary Poppins (1964) Full 1080p Latino

4.939 vistas
1 estrella2 estrellas3 estrellas4 estrellas5 estrellas (5 votos, promedio: 4,20 de 5)
Cargando…

Información de Mary Poppins (1964) Full 1080p Latino

Datos de la película

  • Calidad: Full 1080p
  • Audio: Español Latino AC3 5.1 BLURAY - Ingles DTS 5.1 BLURAY
  • Subtitulos: Español Latino PGS - Ingles PGS
  • Resolución: 1920x1080p
  • Formato: MKV
  • Codec: H.264
  • Encoder: Dracarys
  • Mediainfo: Clic para Mostrar Datos Ver
  • Format                                   : Matroska
    Format version                           : Version 4 / Version 2
    File size                                : 16.3 GiB
    Duration                                 : 2 h 19 min
    Overall bit rate                         : 16.8 Mb/s
    Movie name                               : CinemaniaHDD.net
    Encoded date                             : UTC 2018-09-19 01:19:29 / UTC 2018-09-18T16:59:29Z
    Writing application                      : mkvmerge v15.0.0 ('Duel with the Devil') 64-bit
    Writing library                          : libebml v1.3.5 + libmatroska v1.4.5 / Lavf57.7.2

    Video
    ID                                       : 1
    Format                                   : AVC
    Format/Info                              : Advanced Video Codec
    Format profile                           : [email protected]
    Format settings                          : CABAC / 4 Ref Frames
    Format settings, CABAC                   : Yes
    Format settings, RefFrames               : 4 frames
    Codec ID                                 : V_MPEG4/ISO/AVC
    Duration                                 : 2 h 19 min
    Bit rate                                 : 14.3 Mb/s
    Width                                    : 1 920 pixels
    Height                                   : 1 080 pixels
    Display aspect ratio                     : 16:9
    Frame rate mode                          : Constant
    Frame rate                               : 23.976 (24000/1001) FPS
    Color space                              : YUV
    Chroma subsampling                       : 4:2:0
    Bit depth                                : 8 bits
    Scan type                                : Progressive
    Bits/(Pixel*Frame)                       : 0.287
    Stream size                              : 13.9 GiB (85%)
    Title                                    : Mary Poppins (1964) Full 1080p Latino
    Writing library                          : x264 core 148 r2708 86b7198
    Encoding settings                        : cabac=1 / ref=4 / deblock=1:0:0 / analyse=0x3:0x133 / me=esa / subme=10 / psy=1 / psy_rd=1.00:0.00 / mixed_ref=1 / me_range=24 / chroma_me=1 / trellis=2 / 8x8dct=1 / cqm=0 / deadzone=21,11 / fast_pskip=1 / chroma_qp_offset=-2 / threads=34 / lookahead_threads=5 / sliced_threads=0 / nr=0 / decimate=1 / interlaced=0 / bluray_compat=0 / constrained_intra=0 / bframes=8 / b_pyramid=2 / b_adapt=2 / b_bias=0 / direct=3 / weightb=1 / open_gop=0 / weightp=2 / keyint=240 / keyint_min=24 / scenecut=40 / intra_refresh=0 / rc_lookahead=60 / rc=crf / mbtree=1 / crf=20.0 / qcomp=0.60 / qpmin=0 / qpmax=69 / qpstep=4 / vbv_maxrate=62500 / vbv_bufsize=78125 / crf_max=0.0 / nal_hrd=none / filler=0 / ip_ratio=1.40 / aq=1:1.00
    Language                                 : English
    Default                                  : Yes
    Forced                                   : No
    Color range                              : Limited
    Color primaries                          : BT.709
    Transfer characteristics                 : BT.709
    Matrix coefficients                      : BT.709
    Statistics Tags Issue                    : mkvmerge v15.0.0 ('Duel with the Devil') 64-bit 2018-09-19 01:19:29 / mkvmerge v15.0.0 ('Duel with the Devil') 64-bit 2018-09-19 01:19:29 / UTC 2018-09-18T16:59:29Z
    FromStats_BitRate                        : 14582667
    FromStats_Duration                       : 02:19:06.338000000
    FromStats_FrameCount                     : 200112
    FromStats_StreamSize                     : 15213984076

    Audio #1
    ID                                       : 2
    Format                                   : AC-3
    Format/Info                              : Audio Coding 3
    Format settings, Endianness              : Big
    Codec ID                                 : A_AC3
    Duration                                 : 2 h 19 min
    Bit rate mode                            : Constant
    Bit rate                                 : 640 kb/s
    Channel(s)                               : 6 channels
    Channel positions                        : Front: L C R, Side: L R, LFE
    Sampling rate                            : 48.0 kHz
    Frame rate                               : 31.250 FPS (1536 SPF)
    Bit depth                                : 16 bits
    Compression mode                         : Lossy
    Stream size                              : 637 MiB (4%)
    Language                                 : Spanish
    Service kind                             : Complete Main
    Default                                  : Yes
    Forced                                   : No
    Statistics Tags Issue                    : mkvmerge v15.0.0 ('Duel with the Devil') 64-bit 2018-09-19 01:19:29 / mkvmerge v15.0.0 ('Duel with the Devil') 64-bit 2018-09-19 01:19:29 / UTC 2018-09-18T16:59:29Z
    FromStats_BitRate                        : 640000
    FromStats_Duration                       : 02:19:06.368000000
    FromStats_FrameCount                     : 260824
    FromStats_StreamSize                     : 667709440

    Audio #2
    ID                                       : 3
    Format                                   : DTS
    Format/Info                              : Digital Theater Systems
    Mode                                     : 16
    Format settings, Endianness              : Big
    Codec ID                                 : A_DTS
    Duration                                 : 2 h 19 min
    Bit rate mode                            : Constant
    Bit rate                                 : 1 509 kb/s
    Channel(s)                               : 6 channels
    Channel positions                        : Front: L C R, Side: L R, LFE
    Sampling rate                            : 48.0 kHz
    Frame rate                               : 93.750 FPS (512 SPF)
    Bit depth                                : 24 bits
    Compression mode                         : Lossy
    Stream size                              : 1.47 GiB (9%)
    Language                                 : English
    Default                                  : No
    Forced                                   : No
    Statistics Tags Issue                    : mkvmerge v15.0.0 ('Duel with the Devil') 64-bit 2018-09-19 01:19:29 / mkvmerge v15.0.0 ('Duel with the Devil') 64-bit 2018-09-19 01:19:29 / UTC 2018-09-18T16:59:29Z
    FromStats_BitRate                        : 1509000
    FromStats_Duration                       : 02:19:06.336000000
    FromStats_FrameCount                     : 782469
    FromStats_StreamSize                     : 1574327628

    Text #1
    ID                                       : 4
    Format                                   : PGS
    Muxing mode                              : zlib
    Codec ID                                 : S_HDMV/PGS
    Codec ID/Info                            : Picture based subtitle format used on BDs/HD-DVDs
    Language                                 : English
    Default                                  : No
    Forced                                   : No
    Statistics Tags Issue                    : mkvmerge v15.0.0 ('Duel with the Devil') 64-bit 2018-09-19 01:19:29 / mkvmerge v15.0.0 ('Duel with the Devil') 64-bit 2018-09-19 01:19:29 / UTC 2018-09-18T16:59:29Z
    FromStats_BitRate                        : 36784
    FromStats_Duration                       : 02:17:02.673000000
    FromStats_FrameCount                     : 3974
    FromStats_StreamSize                     : 37807899

    Text #2
    ID                                       : 5
    Format                                   : PGS
    Muxing mode                              : zlib
    Codec ID                                 : S_HDMV/PGS
    Codec ID/Info                            : Picture based subtitle format used on BDs/HD-DVDs
    Language                                 : Spanish
    Default                                  : No
    Forced                                   : No
    Statistics Tags Issue                    : mkvmerge v15.0.0 ('Duel with the Devil') 64-bit 2018-09-19 01:19:29 / mkvmerge v15.0.0 ('Duel with the Devil') 64-bit 2018-09-19 01:19:29 / UTC 2018-09-18T16:59:29Z
    FromStats_BitRate                        : 36878
    FromStats_Duration                       : 02:17:09.596000000
    FromStats_FrameCount                     : 3388
    FromStats_StreamSize                     : 37936858

    Menu
    00:00:00.000                             : :Chapter 1
    00:05:54.145                             : :Chapter 2
    00:08:56.703                             : :Chapter 3
    00:12:37.507                             : :Chapter 4
    00:18:36.866                             : :Chapter 5
    00:22:57.668                             : :Chapter 6
    00:31:39.147                             : :Chapter 7
    00:36:08.875                             : :Chapter 8
    00:41:36.911                             : :Chapter 9
    00:47:21.339                             : :Chapter 10
    00:56:50.866                             : :Chapter 11
    01:02:03.428                             : :Chapter 12
    01:09:32.585                             : :Chapter 13
    01:19:43.404                             : :Chapter 14
    01:23:55.030                             : :Chapter 15
    01:30:39.142                             : :Chapter 16
    01:39:09.777                             : :Chapter 17
    01:44:31.015                             : :Chapter 18
    01:47:35.991                             : :Chapter 19
    01:56:46.541                             : :Chapter 20
    02:05:30.023                             : :Chapter 21
    02:13:28.209                             : :Chapter 22
    02:16:28.764                             : :Chapter 23
    02:17:45.424                             : :Chapter 24

  • Peso: 16.3 GiB

Sinopsis

Reinado de Eduardo VII (1901-1910). Una familia inglesa formada por un padre banquero, una madre sufraguista y dos niños rebeldes -que pretenden llamar la atención de su padre haciendo la vida imposible a todas las niñeras-, se verá alterada con la llegada de Mary Poppins, una institutriz muy especial, que desciende de las nubes empleando su paraguas como paracaídas. Debut y Oscar para Julie Andrews en este clásico del cine familiar que en su día batió récords de taquilla. Una niñera mágica y canciones pegadizas que harán las delicias de los más pequeños de la casa.

Ficha técnica

Video trailer de la película

Enlaces de descarga

Rip de Bluray

Descargar Mary Poppins (1964) Full 1080p Latino




Aportes de DPeliculasHDmega la pass es:dpeliculashdmega.org Aportes de CinemaniaHD la pass es:cinemaniahdd.com

Películas relacionadas

  • Arizona (2018) 1080p Latino

    2018
    Arizona (2018) 1080p Latino

    5.0 1h 25m 2018

    Ambientada en medio de la crisis de la vivienda de 2009, esta oscura y cómica historia sigue a Cassie...

    Director: Mara Herdmann

    Género: Comedia

    Actores: Vivian Nesbitt

  • Si La Colonia Hablara (2018) Full 1080p Subtitulado

    2018
    Si La Colonia Hablara (2018) Full 1080p Subtitulado

    5.0 1h 57m 2018

    Descargar Si La Colonia Hablara (2018) Full 1080p Subtitulado, Mega, Google Drive. Basada en la novela...

    Director: Barry Jenkins

    Género: Crimen

    Actores: Teyonah Parris

Comentarios 0