×

¿Problemas para descargar con Mozilla, EDGE? Deshabilita la opción "Abrir vinculos en una pestaña nueva" tal como lo muestra ésta imagen.

La Posesión De Mary (2019) EXTENDED PLACEBO Full HD 1080p Latino

420 vistas

Información de La Posesión De Mary (2019) EXTENDED PLACEBO Full HD 1080p Latino

Datos de la película

  • Calidad: Full 1080p
  • Audio: Español Latino AC3 2.0 iTUNES - Ingles DTS 5.1 BURAY
  • Subtitulos: Español Latino SRT- FORZADOS SRT
  • Resolución: 1920x1080p
  • Formato: MKV
  • Codec: H.264
  • Encoder: Melkor
  • Mediainfo: Clic para Mostrar Datos Ver
  • La Posesion de Mary (2019) PLACEBO Full HD 1080p Latino.mkv
    Format                      : Matroska
    Format version              : Version 4
    File size                   : 4.98 GiB
    Duration                    : 1 h 25 min
    Overall bit rate mode       : Variable
    Overall bit rate            : 8 375 kb/s
    Movie name                  : Mary (2019) CinemaniaHDD.Net
    Encoded date                : UTC 2020-05-15 05:12:44
    Writing application         : mkvmerge v42.0.0 ('Overtime') 64-bit
    Writing library             : libebml v1.3.10 + libmatroska v1.5.2
    Attachments                 : CINEMANIAHD.png

    Video
    ID                          : 1
    Format                      : AVC
    Format/Info                 : Advanced Video Codec
    Format profile              : High@L4.1
    Format settings             : CABAC / 4 Ref Frames
    Format settings, CABAC      : Yes
    Format settings, ReFrames   : 4 frames
    Codec ID                    : V_MPEG4/ISO/AVC
    Duration                    : 1 h 25 min
    Bit rate                    : 6 222 kb/s
    Width                       : 1 920 pixels
    Height                      : 1 080 pixels
    Display aspect ratio        : 16:9
    Frame rate mode             : Constant
    Frame rate                  : 23.976 (24000/1001) FPS
    Color space                 : YUV
    Chroma subsampling          : 4:2:0
    Bit depth                   : 8 bits
    Scan type                   : Progressive
    Bits/(Pixel*Frame)          : 0.125
    Stream size                 : 3.70 GiB (74%)
    Title                       : Full HD1080p [CinemaniaHDD]
    Writing library             : x264 core 157 r2935 545de2f
    Encoding settings           : cabac=1 / ref=4 / deblock=1:0:0 / analyse=0x3:0x133 / me=tesa / subme=11 / psy=1 / psy_rd=1.00:0.00 / mixed_ref=1 / me_range=24 / chroma_me=1 / trellis=2 / 8x8dct=1 / cqm=0 / deadzone=21,11 / fast_pskip=0 / chroma_qp_offset=-2 / threads=34 / lookahead_threads=8 / sliced_threads=0 / nr=0 / decimate=1 / interlaced=0 / bluray_compat=0 / constrained_intra=0 / bframes=16 / b_pyramid=2 / b_adapt=2 / b_bias=0 / direct=3 / weightb=1 / open_gop=0 / weightp=2 / keyint=240 / keyint_min=24 / scenecut=40 / intra_refresh=0 / rc_lookahead=60 / rc=crf / mbtree=1 / crf=19.0 / qcomp=0.60 / qpmin=0 / qpmax=69 / qpstep=4 / vbv_maxrate=62500 / vbv_bufsize=78125 / crf_max=0.0 / nal_hrd=none / filler=0 / ip_ratio=1.40 / aq=1:1.00
    Default                     : Yes
    Forced                      : Yes
    Color range                 : Limited
    Color primaries             : BT.709
    Transfer characteristics    : BT.709
    Matrix coefficients         : BT.709

    Audio #1
    ID                          : 2
    Format                      : AC-3
    Format/Info                 : Audio Coding 3
    Commercial name             : Dolby Digital
    Codec ID                    : A_AC3
    Duration                    : 1 h 25 min
    Bit rate mode               : Constant
    Bit rate                    : 256 kb/s
    Channel(s)                  : 2 channels
    Channel layout              : L R
    Sampling rate               : 48.0 kHz
    Frame rate                  : 31.250 FPS (1536 SPF)
    Bit depth                   : 16 bits
    Compression mode            : Lossy
    Delay relative to video     : -83 ms
    Stream size                 : 156 MiB (3%)
    Title                       : Español Latino [CinemaniaHDD]
    Language                    : Spanish
    Service kind                : Complete Main
    Default                     : Yes
    Forced                      : Yes

    Audio #2
    ID                          : 3
    Format                      : DTS XLL
    Format/Info                 : Digital Theater Systems
    Commercial name             : DTS-HD Master Audio
    Codec ID                    : A_DTS
    Duration                    : 1 h 25 min
    Bit rate mode               : Variable
    Bit rate                    : 1 894 kb/s
    Channel(s)                  : 6 channels
    Channel layout              : C L R Ls Rs LFE
    Sampling rate               : 48.0 kHz
    Frame rate                  : 93.750 FPS (512 SPF)
    Bit depth                   : 16 bits
    Compression mode            : Lossless
    Delay relative to video     : -83 ms
    Stream size                 : 1.13 GiB (23%)
    Title                       : Ingles [CinemaniaHDD]
    Language                    : English
    Default                     : No
    Forced                      : No

    Text #1
    ID                          : 4
    Format                      : UTF-8
    Codec ID                    : S_TEXT/UTF8
    Codec ID/Info               : UTF-8 Plain Text
    Duration                    : 1 h 18 min
    Bit rate                    : 2 b/s
    Count of elements           : 32
    Stream size                 : 1.22 KiB (0%)
    Title                       : Forzados-SRT [CinemaniaHDD]
    Language                    : Spanish
    Default                     : Yes
    Forced                      : Yes

    Text #2
    ID                          : 5
    Format                      : UTF-8
    Codec ID                    : S_TEXT/UTF8
    Codec ID/Info               : UTF-8 Plain Text
    Duration                    : 1 h 18 min
    Bit rate                    : 41 b/s
    Count of elements           : 742
    Stream size                 : 23.9 KiB (0%)
    Title                       : Español-SRT [CinemaniaHDD]
    Language                    : Spanish
    Default                     : No
    Forced                      : No

    Menu
    00:00:00.000                : en:Chapter 01
    00:07:29.323                : en:Chapter 02
    00:13:52.748                : en:Chapter 03
    00:21:22.197                : en:Chapter 04
    00:28:37.173                : en:Chapter 05
    00:34:04.876                : en:Chapter 06
    00:41:43.292                : en:Chapter 07
    00:49:27.381                : en:Chapter 08
    00:56:31.888                : en:Chapter 09
    01:02:54.395                : en:Chapter 10
    01:08:11.462                : en:Chapter 11
    01:14:23.083                : en:Chapter 12

  • Peso: 4.98 GiB

Sinopsis

Descargar La Posesión De Mary (2019) EXTENDED PLACEBO Full HD 1080p Latino. Una familia que pretende abrir un negocio de transporte compra un barco que encierra un terrorífico secreto en su interior. Por desgracia para ellos, éste sólo sale a la luz cuando el buque se encuentra mar adentro.

Nota: Version UnCut (extendida) 😉

Ficha técnica

Video trailer de la película

Enlaces de descarga

Rip de Bluray

Descargar La Posesión De Mary (2019) EXTENDED PLACEBO Full HD 1080p Latino




Aportes de DPeliculasHDmega la pass es:dpeliculashdmega.org Aportes de CinemaniaHD la pass es:cinemaniahdd.com

Películas relacionadas

descargar La Posesión De Mary (2019) EXTENDED PLACEBO Full HD 1080p Latino Full 1080p 1080p gratis, La Posesión De Mary (2019) EXTENDED PLACEBO Full HD 1080p Latino Full 1080p mega 1 link, La Posesión De Mary (2019) EXTENDED PLACEBO Full HD 1080p Latino Full 1080p pelicula completa, descargar La Posesión De Mary (2019) EXTENDED PLACEBO Full HD 1080p Latino Full 1080p gratis en mega.

La Posesión De Mary (2019) EXTENDED PLACEBO Full HD 1080p Latino pelicula full hd, La Posesión De Mary (2019) EXTENDED PLACEBO Full HD 1080p Latino mega latino, La Posesión De Mary (2019) EXTENDED PLACEBO Full HD 1080p Latino 4k latino, La Posesión De Mary (2019) EXTENDED PLACEBO Full HD 1080p Latino pelicula completa, La Posesión De Mary (2019) EXTENDED PLACEBO Full HD 1080p Latino descargar gratis, descargar La Posesión De Mary (2019) EXTENDED PLACEBO Full HD 1080p Latino pelicula latino, La Posesión De Mary (2019) EXTENDED PLACEBO Full HD 1080p Latino 1 link mega, La Posesión De Mary (2019) EXTENDED PLACEBO Full HD 1080p Latino 1 link google drive, La Posesión De Mary (2019) EXTENDED PLACEBO Full HD 1080p Latino hd 1080p latino.
Comentarios 0