×

¿Problemas para descargar con Mozilla, EDGE? Deshabilita la opción "Abrir vinculos en una pestaña nueva" tal como lo muestra ésta imagen.

La Posesión De Mary (2019) EXTENDED HD 1080p Latino

393 vistas

Información de La Posesión De Mary (2019) EXTENDED HD 1080p Latino

Datos de la película

  • Calidad: 1080p
  • Audio: Español Latino AC3 2.0 iTUNES - Ingles AC3 5.1 BLURAY
  • Subtitulos: Español Latino SRT- FORZADOS SRT
  • Resolución: 1920x800p
  • Formato: MKV
  • Codec: H.264
  • Encoder: Melkor
  • Mediainfo: Clic para Mostrar Datos Ver
  • La Posesion de Mary (2019) HD 1080p Latino.mkv
    Format                      : Matroska
    Format version              : Version 4
    File size                   : 2.41 GiB
    Duration                    : 1 h 25 min
    Overall bit rate            : 4 047 kb/s
    Movie name                  : Mary (2019) CinemaniaHDD.Net
    Encoded date                : UTC 2020-05-15 03:43:11
    Writing application         : mkvmerge v42.0.0 ('Overtime') 64-bit
    Writing library             : libebml v1.3.10 + libmatroska v1.5.2
    Attachments                 : CINEMANIAHD.png

    Video
    ID                          : 1
    Format                      : AVC
    Format/Info                 : Advanced Video Codec
    Format profile              : High@L4.1
    Format settings             : CABAC / 5 Ref Frames
    Format settings, CABAC      : Yes
    Format settings, ReFrames   : 5 frames
    Codec ID                    : V_MPEG4/ISO/AVC
    Duration                    : 1 h 25 min
    Bit rate                    : 3 500 kb/s
    Width                       : 1 920 pixels
    Height                      : 800 pixels
    Display aspect ratio        : 2.40:1
    Frame rate mode             : Constant
    Frame rate                  : 23.976 (24000/1001) FPS
    Color space                 : YUV
    Chroma subsampling          : 4:2:0
    Bit depth                   : 8 bits
    Scan type                   : Progressive
    Bits/(Pixel*Frame)          : 0.095
    Stream size                 : 1.99 GiB (83%)
    Title                       : HD1080p [CinemaniaHDD]
    Writing library             : x264 core 157 r2935 545de2f
    Encoding settings           : cabac=1 / ref=5 / deblock=1:-2:-2 / analyse=0x3:0x113 / me=hex / subme=8 / psy=1 / psy_rd=1.00:0.25 / mixed_ref=1 / me_range=16 / chroma_me=1 / trellis=2 / 8x8dct=1 / cqm=0 / deadzone=6,6 / fast_pskip=1 / chroma_qp_offset=-4 / threads=24 / lookahead_threads=4 / sliced_threads=0 / nr=0 / decimate=0 / interlaced=0 / bluray_compat=0 / constrained_intra=0 / bframes=3 / b_pyramid=2 / b_adapt=1 / b_bias=0 / direct=3 / weightb=1 / open_gop=0 / weightp=2 / keyint=240 / keyint_min=24 / scenecut=40 / intra_refresh=0 / rc_lookahead=50 / rc=abr / mbtree=1 / bitrate=3500 / ratetol=1.0 / qcomp=0.80 / qpmin=0 / qpmax=69 / qpstep=4 / vbv_maxrate=62500 / vbv_bufsize=78125 / nal_hrd=none / filler=0 / ip_ratio=1.10 / aq=1:0.50
    Default                     : Yes
    Forced                      : Yes
    Color range                 : Limited
    Color primaries             : BT.709
    Transfer characteristics    : BT.709
    Matrix coefficients         : BT.709

    Audio #1
    ID                          : 2
    Format                      : AC-3
    Format/Info                 : Audio Coding 3
    Commercial name             : Dolby Digital
    Codec ID                    : A_AC3
    Duration                    : 1 h 25 min
    Bit rate mode               : Constant
    Bit rate                    : 256 kb/s
    Channel(s)                  : 2 channels
    Channel layout              : L R
    Sampling rate               : 48.0 kHz
    Frame rate                  : 31.250 FPS (1536 SPF)
    Bit depth                   : 16 bits
    Compression mode            : Lossy
    Delay relative to video     : -5 ms
    Stream size                 : 156 MiB (6%)
    Title                       : Español Latino [CinemaniaHDD]
    Language                    : Spanish
    Service kind                : Complete Main
    Default                     : Yes
    Forced                      : Yes

    Audio #2
    ID                          : 3
    Format                      : AC-3
    Format/Info                 : Audio Coding 3
    Commercial name             : Dolby Digital
    Codec ID                    : A_AC3
    Duration                    : 1 h 25 min
    Bit rate mode               : Constant
    Bit rate                    : 448 kb/s
    Channel(s)                  : 6 channels
    Channel layout              : L R C LFE Ls Rs
    Sampling rate               : 48.0 kHz
    Frame rate                  : 31.250 FPS (1536 SPF)
    Bit depth                   : 16 bits
    Compression mode            : Lossy
    Delay relative to video     : -5 ms
    Stream size                 : 273 MiB (11%)
    Title                       : Ingles [CinemaniaHDD]
    Language                    : English
    Service kind                : Complete Main
    Default                     : No
    Forced                      : No

    Text #1
    ID                          : 4
    Format                      : UTF-8
    Codec ID                    : S_TEXT/UTF8
    Codec ID/Info               : UTF-8 Plain Text
    Duration                    : 1 h 18 min
    Bit rate                    : 2 b/s
    Count of elements           : 32
    Stream size                 : 1.22 KiB (0%)
    Title                       : Forzados-SRT [CinemaniaHDD]
    Language                    : Spanish
    Default                     : Yes
    Forced                      : Yes

    Text #2
    ID                          : 5
    Format                      : UTF-8
    Codec ID                    : S_TEXT/UTF8
    Codec ID/Info               : UTF-8 Plain Text
    Duration                    : 1 h 18 min
    Bit rate                    : 41 b/s
    Count of elements           : 742
    Stream size                 : 23.9 KiB (0%)
    Title                       : Español-SRT [CinemaniaHDD]
    Language                    : Spanish
    Default                     : No
    Forced                      : No

    Menu
    00:00:00.000                : :Chapter 1
    00:07:29.324                : :Chapter 2
    00:13:52.749                : :Chapter 3
    00:21:22.198                : :Chapter 4
    00:28:37.174                : :Chapter 5
    00:34:05.001                : :Chapter 6
    00:41:43.418                : :Chapter 7
    00:49:27.506                : :Chapter 8
    00:56:31.889                : :Chapter 9
    01:02:54.396                : :Chapter 10
    01:08:11.588                : :Chapter 11
    01:14:23.167                : :Chapter 12

  • Peso: 2.41 GiB

Sinopsis

Descargar La Posesión De Mary (2019) HD 1080p Latino. Una familia que pretende abrir un negocio de transporte compra un barco que encierra un terrorífico secreto en su interior. Por desgracia para ellos, éste sólo sale a la luz cuando el buque se encuentra mar adentro.

Nota: Version UnCut (extendida) 😉

Ficha técnica

  • Titulo original: Mary
  • Fecha de lanzamiento: 19-09-2019 (United States of America)
  • Director: Michael Goi
  • Género: HD 1080p, Terror

Video trailer de la película

Enlaces de descarga

Rip de Bluray

Descargar La Posesión De Mary (2019) EXTENDED HD 1080p Latino




Aportes de DPeliculasHDmega la pass es:dpeliculashdmega.org Aportes de CinemaniaHD la pass es:cinemaniahdd.com
Guardado en : HD 1080p , Terror

Películas relacionadas

  • Asústame (2020) HD 1080p Latino

    Asústame (2020) HD 1080p Latino

    2020
    Asústame (2020) HD 1080p Latino

    1h 44m 2020

    Descargar Asústame (2020) HD 1080p Latino. Durante un corte de energía, dos extraños cuentan historias...

    Director: Josh Ruben

    Género: Comedia

    Actores: Rebecca Drysdale

  • Asústame (2020) PLACEBO Full HD 1080p Latino

    Asústame (2020) PLACEBO Full HD 1080p Latino

    2020
    Asústame (2020) PLACEBO Full HD 1080p Latino

    1h 44m 2020

    Descargar Asústame (2020) PLACEBO Full HD 1080p Latino. Durante un corte de energía, dos extraños...

    Director: Josh Ruben

    Género: Comedia

    Actores: Rebecca Drysdale

  • Asústame (2020) REMUX 1080p Latino

    Asústame (2020) REMUX 1080p Latino

    2020
    Asústame (2020) REMUX 1080p Latino

    1h 44m 2020

    Descargar Asústame (2020) REMUX 1080p Latino. Durante un corte de energía, dos extraños cuentan historias...

    Director: Josh Ruben

    Género: Comedia

    Actores: Rebecca Drysdale

descargar La Posesión De Mary (2019) EXTENDED HD 1080p Latino 1080p 1080p gratis, La Posesión De Mary (2019) EXTENDED HD 1080p Latino 1080p mega 1 link, La Posesión De Mary (2019) EXTENDED HD 1080p Latino 1080p pelicula completa, descargar La Posesión De Mary (2019) EXTENDED HD 1080p Latino 1080p gratis en mega.

La Posesión De Mary (2019) EXTENDED HD 1080p Latino pelicula full hd, La Posesión De Mary (2019) EXTENDED HD 1080p Latino mega latino, La Posesión De Mary (2019) EXTENDED HD 1080p Latino 4k latino, La Posesión De Mary (2019) EXTENDED HD 1080p Latino pelicula completa, La Posesión De Mary (2019) EXTENDED HD 1080p Latino descargar gratis, descargar La Posesión De Mary (2019) EXTENDED HD 1080p Latino pelicula latino, La Posesión De Mary (2019) EXTENDED HD 1080p Latino 1 link mega, La Posesión De Mary (2019) EXTENDED HD 1080p Latino 1 link google drive, La Posesión De Mary (2019) EXTENDED HD 1080p Latino hd 1080p latino.
Comentarios 0