×

¿Problemas para descargar con Mozilla, EDGE? Deshabilita la opción "Abrir vinculos en una pestaña nueva" tal como lo muestra ésta imagen.

Marvel’s The Defenders (2017) Serie Completa NF WEB 1080p Latino

276 vistas

Información de Marvel’s The Defenders (2017) Serie Completa NF WEB 1080p Latino

Datos de la película

  • Calidad: WEBDL
  • Audio: Español Latino E-AC3 5.1 Netflix - Ingles E-AC3 5.1 Netflix
  • Subtitulos: Español Latino SRT- FORZADOS SRT
  • Resolución: 1920x1080p
  • Formato: MKV
  • Codec: H.264
  • Encoder: CinemaniaHD
  • Mediainfo: Clic para Mostrar Datos Ver
  • Marvels The Defenders S01E01 (2017) NF WEB-DL 1080p Latino.mkv
    Format                      : Matroska
    Format version              : Version 4
    File size                   : 3.27 GiB
    Duration                    : 51 min 43 s
    Overall bit rate mode       : Variable
    Overall bit rate            : 9 064 kb/s
    Movie name                  : Marvels The Defenders S01E01 CinemaniaHDD.Net
    Encoded date                : UTC 2023-04-24 04:16:48
    Writing application         : mkvmerge v56.1.0 ('My Friend') 64-bit
    Writing library             : libebml v1.4.2 + libmatroska v1.6.4
    Attachments                 : CINEMANIAHD.png
    Site                        : CinemaniaHDD.Net
    Uploader                    : Melkor

    Video
    ID                          : 1
    Format                      : AVC
    Format/Info                 : Advanced Video Codec
    Format profile              : High@L4
    Format settings             : CABAC / 4 Ref Frames
    Format settings, CABAC      : Yes
    Format settings, Reference  : 4 frames
    Codec ID                    : V_MPEG4/ISO/AVC
    Duration                    : 51 min 41 s
    Bit rate mode               : Variable
    Bit rate                    : 7 787 kb/s
    Maximum bit rate            : 20.0 Mb/s
    Width                       : 1 920 pixels
    Height                      : 1 080 pixels
    Display aspect ratio        : 16:9
    Frame rate mode             : Variable
    Frame rate                  : 23.976 FPS
    Color space                 : YUV
    Chroma subsampling          : 4:2:0
    Bit depth                   : 8 bits
    Scan type                   : Progressive
    Bits/(Pixel*Frame)          : 0.157
    Stream size                 : 2.81 GiB (86%)
    Title                       : WEB HD1080p [CinemaniaHDD]
    Writing library             : x264 core 148 r2721 6d200cf
    Encoding settings           : cabac=1 / ref=4 / deblock=1:0:0 / analyse=0x3:0x111 / me=umh / subme=10 / psy=1 / psy_rd=1.00:0.00 / mixed_ref=1 / me_range=120 / chroma_me=1 / trellis=2 / 8x8dct=1 / cqm=0 / deadzone=21,11 / fast_pskip=1 / chroma_qp_offset=-2 / threads=8 / lookahead_threads=2 / sliced_threads=0 / nr=0 / decimate=1 / interlaced=0 / bluray_compat=0 / stitchable=1 / constrained_intra=0 / bframes=16 / b_pyramid=2 / b_adapt=2 / b_bias=0 / direct=3 / weightb=1 / open_gop=0 / weightp=2 / keyint=240 / keyint_min=121 / scenecut=0 / intra_refresh=0 / rc_lookahead=240 / rc=crf / mbtree=1 / crf=21.0 / qcomp=0.50 / qpmin=6 / qpmax=51 / qpstep=4 / vbv_maxrate=20000 / vbv_bufsize=25000 / crf_max=0.0 / nal_hrd=vbr / filler=0 / ip_ratio=1.40 / aq=1:0.80
    Language                    : English
    Default                     : Yes
    Forced                      : No

    Audio #1
    ID                          : 2
    Format                      : E-AC-3
    Format/Info                 : Enhanced AC-3
    Commercial name             : Dolby Digital Plus
    Codec ID                    : A_EAC3
    Duration                    : 51 min 43 s
    Bit rate mode               : Constant
    Bit rate                    : 640 kb/s
    Channel(s)                  : 6 channels
    Channel layout              : L R C LFE Ls Rs
    Sampling rate               : 48.0 kHz
    Frame rate                  : 31.250 FPS (1536 SPF)
    Compression mode            : Lossy
    Stream size                 : 237 MiB (7%)
    Title                       : Español Latino [CinemaniaHDD]
    Language                    : Spanish
    Service kind                : Complete Main
    Default                     : Yes
    Forced                      : No

    Audio #2
    ID                          : 3
    Format                      : E-AC-3
    Format/Info                 : Enhanced AC-3
    Commercial name             : Dolby Digital Plus
    Codec ID                    : A_EAC3
    Duration                    : 51 min 43 s
    Bit rate mode               : Constant
    Bit rate                    : 640 kb/s
    Channel(s)                  : 6 channels
    Channel layout              : L R C LFE Ls Rs
    Sampling rate               : 48.0 kHz
    Frame rate                  : 31.250 FPS (1536 SPF)
    Compression mode            : Lossy
    Stream size                 : 237 MiB (7%)
    Title                       : Ingles [CinemaniaHDD]
    Language                    : English
    Service kind                : Complete Main
    Default                     : No
    Forced                      : No

    Text #1
    ID                          : 4
    Format                      : UTF-8
    Codec ID                    : S_TEXT/UTF8
    Codec ID/Info               : UTF-8 Plain Text
    Duration                    : 50 min 16 s
    Bit rate                    : 0 b/s
    Count of elements           : 9
    Stream size                 : 360 Bytes (0%)
    Title                       : Forzados-SRT [CinemaniaHDD]
    Language                    : Spanish
    Default                     : Yes
    Forced                      : No

    Text #2
    ID                          : 5
    Format                      : UTF-8
    Codec ID                    : S_TEXT/UTF8
    Codec ID/Info               : UTF-8 Plain Text
    Duration                    : 50 min 16 s
    Bit rate                    : 48 b/s
    Count of elements           : 555
    Stream size                 : 17.9 KiB (0%)
    Title                       : Español-SRT [CinemaniaHDD]
    Language                    : Spanish
    Default                     : No
    Forced                      : No

    Text #3
    ID                          : 6
    Format                      : UTF-8
    Codec ID                    : S_TEXT/UTF8
    Codec ID/Info               : UTF-8 Plain Text
    Duration                    : 49 min 7 s
    Bit rate                    : 64 b/s
    Count of elements           : 670
    Stream size                 : 23.1 KiB (0%)
    Title                       : Ingles-SRT [CinemaniaHDD]
    Language                    : English
    Default                     : No
    Forced                      : No

  • Peso: 2.70 GiB Aprox C/U -- 21.3 GiB -- 8 Chapters

Sinopsis

Descargar Marvel’s The Defenders (2017) Serie Completa NF WEB 1080p Latino. Miniserie (8 Episodios) que reune a los distintos superheroes de las series coproduccion entre Marvel Studios y Netflix. Una conspiración siniestra amenaza Nueva York, y Daredevil, Jessica Jones, Luke Cage y Iron Fist unen sus fuerzas para enfrentar a sus enemigos en común.

RESUBIDO

Ficha técnica

Video trailer de la película

Enlaces de descarga

Rip de Bluray

Descargar Marvel’s The Defenders (2017) Serie Completa NF WEB 1080p Latino




Aportes de DPeliculasHDmega la pass es:dpeliculashdmega.org Aportes de CinemaniaHD la pass es:cinemaniahdd.com Aportes recientes:cinemaniahdd.net

Películas relacionadas

descargar Marvel’s The Defenders (2017) Serie Completa NF WEB 1080p Latino WEBDL 1080p gratis, Marvel’s The Defenders (2017) Serie Completa NF WEB 1080p Latino WEBDL mega 1 link, Marvel’s The Defenders (2017) Serie Completa NF WEB 1080p Latino WEBDL serie completa, descargar Marvel’s The Defenders (2017) Serie Completa NF WEB 1080p Latino WEBDL gratis en mega.

Marvel’s The Defenders (2017) Serie Completa NF WEB 1080p Latino pelicula full hd, Marvel’s The Defenders (2017) Serie Completa NF WEB 1080p Latino mega latino, Marvel’s The Defenders (2017) Serie Completa NF WEB 1080p Latino 4k latino, Marvel’s The Defenders (2017) Serie Completa NF WEB 1080p Latino pelicula completa, Marvel’s The Defenders (2017) Serie Completa NF WEB 1080p Latino descargar gratis, descargar Marvel’s The Defenders (2017) Serie Completa NF WEB 1080p Latino pelicula latino, Marvel’s The Defenders (2017) Serie Completa NF WEB 1080p Latino 1 link mega, Marvel’s The Defenders (2017) Serie Completa NF WEB 1080p Latino 1 link google drive, Marvel’s The Defenders (2017) Serie Completa NF WEB 1080p Latino hd 1080p latino.
Comentarios 0