×

¿Problemas para descargar con Mozilla, EDGE? Deshabilita la opción "Abrir vinculos en una pestaña nueva" tal como lo muestra ésta imagen.

Marte (2016) Full 1080p Latino

4.003 vistas

Información de Marte (2016) Full 1080p Latino

Datos de la película

  • Calidad: Full 1080p
  • Audio: Español Latino AC3 2.0 BLURAY - Ingles DTS 5.1 BLURAY
  • Subtitulos: Español Latino PGS - Ingles PGS
  • Resolución: 1920x1080p
  • Formato: MKV
  • Codec: H.264
  • Encoder: Dpelis
  • Mediainfo: Clic para Mostrar Datos Ver
  • Mars S01E01 HD FULL Latino.mkv
    Format                      : Matroska
    Format version              : Version 4 / Version 2
    File size                   : 2.39 GiB
    Duration                    : 47 min 18 s
    Overall bit rate            : 7 228 kb/s
    Movie name                  : DPeliculasHDMega.ORG
    Encoded date                : UTC 2017-04-22 02:14:56
    Writing application         : mkvmerge v10.0.0 ('To Drown In You') 64bit
    Writing library             : libebml v1.3.4 + libmatroska v1.4.5

    Video
    ID                          : 1
    Format                      : AVC
    Format/Info                 : Advanced Video Codec
    Format profile              : High@L4.1
    Format settings, CABAC      : Yes
    Format settings, ReFrames   : 2 frames
    Codec ID                    : V_MPEG4/ISO/AVC
    Duration                    : 47 min 17 s
    Bit rate                    : 3 481 kb/s
    Width                       : 1 920 pixels
    Height                      : 1 080 pixels
    Display aspect ratio        : 16:9
    Frame rate mode             : Constant
    Frame rate                  : 23.976 (24000/1001) FPS
    Color space                 : YUV
    Chroma subsampling          : 4:2:0
    Bit depth                   : 8 bits
    Scan type                   : Progressive
    Bits/(Pixel*Frame)          : 0.070
    Stream size                 : 1.15 GiB (48%)
    Writing library             : x264 core 142
    Encoding settings           : cabac=1 / ref=1 / deblock=1:-1:-1 / analyse=0x3:0 / me=hex / subme=5 / psy=0 / mixed_ref=0 / me_range=16 / chroma_me=1 / trellis=0 / 8x8dct=1 / cqm=0 / deadzone=21,11 / fast_pskip=0 / chroma_qp_offset=0 / threads=8 / lookahead_threads=2 / sliced_threads=0 / nr=0 / decimate=1 / interlaced=0 / bluray_compat=0 / constrained_intra=0 / bframes=2 / b_pyramid=0 / b_adapt=1 / b_bias=0 / direct=1 / weightb=0 / open_gop=0 / weightp=0 / keyint=24 / keyint_min=13 / scenecut=40 / intra_refresh=0 / rc=2pass / mbtree=0 / bitrate=3481 / ratetol=1.0 / qcomp=0.60 / qpmin=0 / qpmax=69 / qpstep=4 / cplxblur=20.0 / qblur=0.5 / ip_ratio=1.40 / pb_ratio=1.30 / aq=1:1.00
    Default                     : Yes
    Forced                      : No
    Color range                 : Limited
    Color primaries             : BT.709
    Transfer characteristics    : BT.709
    Matrix coefficients         : BT.709

    Audio #1
    ID                          : 2
    Format                      : AC-3
    Format/Info                 : Audio Coding 3
    Mode                        : Dolby Digital
    Format settings, Endianness : Big
    Codec ID                    : A_AC3
    Duration                    : 47 min 18 s
    Bit rate mode               : Constant
    Bit rate                    : 224 kb/s
    Channel(s)                  : 2 channels
    Channel positions           : Front: L R
    Sampling rate               : 48.0 kHz
    Frame rate                  : 31.250 FPS (1536 spf)
    Bit depth                   : 16 bits
    Compression mode            : Lossy
    Stream size                 : 75.8 MiB (3%)
    Language                    : Spanish
    Service kind                : Complete Main
    Default                     : Yes
    Forced                      : No

    Audio #2
    ID                          : 3
    Format                      : DTS
    Format/Info                 : Digital Theater Systems
    Format profile              : MA / Core
    Mode                        : 16
    Format settings, Endianness : Big
    Codec ID                    : A_DTS
    Duration                    : 47 min 18 s
    Bit rate mode               : Variable / Constant
    Bit rate                    : 3 489 kb/s / 1 509 kb/s
    Channel(s)                  : 6 channels
    Channel positions           : Front: L C R, Side: L R, LFE
    Sampling rate               : 48.0 kHz
    Frame rate                  : 93.750 FPS (512 spf)
    Bit depth                   : 24 bits
    Compression mode            : Lossless / Lossy
    Stream size                 : 1.15 GiB (48%)
    Language                    : English
    Default                     : No
    Forced                      : No

    Text #1
    ID                          : 4
    Format                      : PGS
    Muxing mode                 : zlib
    Codec ID                    : S_HDMV/PGS
    Codec ID/Info               : Picture based subtitle format used on BDs/HD-DVDs
    Duration                    : 46 min 33 s
    Bit rate                    : 14.9 kb/s
    Count of elements           : 1368
    Stream size                 : 4.98 MiB (0%)
    Language                    : English
    Default                     : No
    Forced                      : No

    Text #2
    ID                          : 5
    Format                      : PGS
    Muxing mode                 : zlib
    Codec ID                    : S_HDMV/PGS
    Codec ID/Info               : Picture based subtitle format used on BDs/HD-DVDs
    Duration                    : 47 min 3 s
    Bit rate                    : 14.9 kb/s
    Count of elements           : 1554
    Stream size                 : 5.00 MiB (0%)
    Language                    : Spanish
    Default                     : No
    Forced                      : No

    Menu
    00:00:00.000                : en:(01)00:00:00:000
    00:02:41.369                : en:(02)00:02:41:369
    00:07:17.603                : en:(03)00:07:17:603
    00:11:11.629                : en:(04)00:11:11:629
    00:12:37.173                : en:(05)00:12:37:173
    00:18:06.168                : en:(06)00:18:06:168
    00:20:22.804                : en:(07)00:20:22:804
    00:24:56.286                : en:(08)00:24:56:286
    00:28:39.134                : en:(09)00:28:39:134
    00:33:22.834                : en:(10)00:33:22:834
    00:38:09.704                : en:(11)00:38:09:704
    00:40:19.166                : en:(12)00:40:19:166
    00:47:18.043                : en:(13)00:47:18:043

  • Peso: 2.50 GB por Capitulo

Sinopsis

Descargar Serie Mars Completa en 1080p, Ambiciosa y espectacular Docuserie centra en mostrar cómo sería la primera misión tripulada al planeta rojo, y mueve los científicos e ingenieros que trabajan para que sea una realidad en el corto demsiado futuro. Hay seis episodios que combinan el aspecto de la película tradicional, con entrevistas a expertos y tomas de archivo, con un aspecto importante de la ficción, en la que vemos la primera misión tripulada a tratar de sobrevivir en Marte. Los expertos enumeran Andy Weir, autor de ‘Marte (Marte)’ novela se basa en Elon Musk, fundador de SpaceX, el astronauta Scott Kelly y administrador de la NASA Charles Bolden. Parte de la ficción incluye nombres como Olivier Martinez, Alberto Ammann o cantante Jihae coreana.

Ficha técnica

Video trailer de la película

Enlaces de descarga

Rip de Bluray

Descargar Marte (2016) Full 1080p Latino




Aportes de DPeliculasHDmega la pass es:dpeliculashdmega.org Aportes de CinemaniaHD la pass es:cinemaniahdd.com
Guardado en : Aventura , Ciencia ficción , Series

Películas relacionadas

Marte (2016) Full 1080p Latino pelicula full hd, Marte (2016) Full 1080p Latino mega latino, Marte (2016) Full 1080p Latino 4k latino, Marte (2016) Full 1080p Latino pelicula completa, Marte (2016) Full 1080p Latino descargar gratis, descargar Marte (2016) Full 1080p Latino pelicula latino, Marte (2016) Full 1080p Latino 1 link mega, Marte (2016) Full 1080p Latino 1 link google drive, Marte (2016) Full 1080p Latino hd 1080p latino.
Comentarios 10