Marshall (2017) Full HD 1080p Latino

14 vistas
1 estrella2 estrellas3 estrellas4 estrellas5 estrellas (1 votos, promedio: 5,00 de 5)
Cargando...

Información de Marshall (2017) Full HD 1080p Latino

Datos de la película

  • Calidad: Full 1080p
  • Audio: Se especifica abajo de la Sinopsis
  • Subtitulos: Español Latino SRT- FORZADOS SRT
  • Resolución: 1920x1080
  • Formato: MKV
  • Codec: H.264
  • Encoder: cinemaniahdd
  • Mediainfo: Clic para Mostrar Datos Ver
  • Marshall, El origen de la justicia (2017) PLACEBO 1080p Latino [CNMNHDD].mkv
    Format                      : Matroska
    Format version              : Version 4
    File size                   : 5.36 GiB
    Duration                    : 1 h 58 min
    Overall bit rate            : 6 477 kb/s
    Movie name                  : Marshall, El origen de la justicia (2017) Full HD - CinemaniaHDD.Net
    Encoded date                : UTC 2020-11-17 04:29:42
    Writing application         : mkvmerge v51.0.0 ('I Wish') 64-bit
    Writing library             : libebml v1.4.0 + libmatroska v1.6.2

    Video
    ID                          : 1
    Format                      : AVC
    Format/Info                 : Advanced Video Codec
    Format profile              : High@L4.1
    Format settings             : CABAC / 4 Ref Frames
    Format settings, CABAC      : Yes
    Format settings, Reference  : 4 frames
    Codec ID                    : V_MPEG4/ISO/AVC
    Duration                    : 1 h 58 min
    Bit rate                    : 3 705 kb/s
    Width                       : 1 920 pixels
    Height                      : 1 080 pixels
    Display aspect ratio        : 16:9
    Frame rate mode             : Constant
    Frame rate                  : 23.976 (24000/1001) FPS
    Color space                 : YUV
    Chroma subsampling          : 4:2:0
    Bit depth                   : 8 bits
    Scan type                   : Progressive
    Bits/(Pixel*Frame)          : 0.075
    Stream size                 : 3.07 GiB (57%)
    Title                       : CinemaniaHDD
    Writing library             : x264 core 157 r2935 545de2f
    Encoding settings           : cabac=1 / ref=4 / deblock=1:0:0 / analyse=0x3:0x133 / me=tesa / subme=11 / psy=1 / psy_rd=1.00:0.00 / mixed_ref=1 / me_range=24 / chroma_me=1 / trellis=2 / 8x8dct=1 / cqm=0 / deadzone=21,11 / fast_pskip=0 / chroma_qp_offset=-2 / threads=24 / lookahead_threads=6 / sliced_threads=0 / nr=0 / decimate=1 / interlaced=0 / bluray_compat=0 / constrained_intra=0 / bframes=16 / b_pyramid=2 / b_adapt=2 / b_bias=0 / direct=3 / weightb=1 / open_gop=0 / weightp=2 / keyint=240 / keyint_min=24 / scenecut=40 / intra_refresh=0 / rc_lookahead=60 / rc=crf / mbtree=1 / crf=20.0 / qcomp=0.60 / qpmin=0 / qpmax=69 / qpstep=4 / vbv_maxrate=62500 / vbv_bufsize=78125 / crf_max=0.0 / nal_hrd=none / filler=0 / ip_ratio=1.40 / aq=1:1.00
    Default                     : Yes
    Forced                      : No
    Color range                 : Limited
    Color primaries             : BT.709
    Transfer characteristics    : BT.709
    Matrix coefficients         : BT.709

    Audio #1
    ID                          : 2
    Format                      : AC-3
    Format/Info                 : Audio Coding 3
    Commercial name             : Dolby Digital
    Codec ID                    : A_AC3
    Duration                    : 1 h 58 min
    Bit rate mode               : Constant
    Bit rate                    : 640 kb/s
    Channel(s)                  : 6 channels
    Channel layout              : L R C LFE Ls Rs
    Sampling rate               : 48.0 kHz
    Frame rate                  : 31.250 FPS (1536 SPF)
    Compression mode            : Lossy
    Delay relative to video     : -5 ms
    Stream size                 : 542 MiB (10%)
    Title                       : Español latino [CinemaniaHDD]
    Language                    : Spanish
    Service kind                : Complete Main
    Default                     : Yes
    Forced                      : No

    Audio #2
    ID                          : 3
    Format                      : DTS
    Format/Info                 : Digital Theater Systems
    Codec ID                    : A_DTS
    Duration                    : 1 h 58 min
    Bit rate mode               : Constant
    Bit rate                    : 1 509 kb/s
    Channel(s)                  : 6 channels
    Channel layout              : C L R Ls Rs LFE
    Sampling rate               : 48.0 kHz
    Frame rate                  : 93.750 FPS (512 SPF)
    Bit depth                   : 24 bits
    Compression mode            : Lossy
    Delay relative to video     : -5 ms
    Stream size                 : 1.23 GiB (23%)
    Title                       : Inglés - DTS [CinemaniaHDD]
    Language                    : English
    Default                     : No
    Forced                      : No

    Audio #3
    ID                          : 4
    Format                      : AC-3
    Format/Info                 : Audio Coding 3
    Commercial name             : Dolby Digital
    Codec ID                    : A_AC3
    Duration                    : 1 h 58 min
    Bit rate mode               : Constant
    Bit rate                    : 640 kb/s
    Channel(s)                  : 6 channels
    Channel layout              : L R C LFE Ls Rs
    Sampling rate               : 48.0 kHz
    Frame rate                  : 31.250 FPS (1536 SPF)
    Compression mode            : Lossy
    Delay relative to video     : -5 ms
    Stream size                 : 542 MiB (10%)
    Title                       : Inglés - AC3 [CinemaniaHDD]
    Language                    : English
    Service kind                : Complete Main
    Default                     : No
    Forced                      : No

    Text #1
    ID                          : 5
    Format                      : UTF-8
    Codec ID                    : S_TEXT/UTF8
    Codec ID/Info               : UTF-8 Plain Text
    Duration                    : 1 h 57 min
    Bit rate                    : 0 b/s
    Count of elements           : 12
    Stream size                 : 461 Bytes (0%)
    Title                       : Forzados [CinemaniaHDD]
    Language                    : Spanish
    Default                     : Yes
    Forced                      : Yes

    Text #2
    ID                          : 6
    Format                      : UTF-8
    Codec ID                    : S_TEXT/UTF8
    Codec ID/Info               : UTF-8 Plain Text
    Duration                    : 1 h 57 min
    Bit rate                    : 69 b/s
    Count of elements           : 1862
    Stream size                 : 60.1 KiB (0%)
    Title                       : Español latino [CinemaniaHDD]
    Language                    : Spanish
    Default                     : No
    Forced                      : No

    Menu
    00:00:00.000                : :Chapter 1
    00:05:08.892                : :Chapter 2
    00:10:40.140                : :Chapter 3
    00:16:01.752                : :Chapter 4
    00:20:57.339                : :Chapter 5
    00:27:01.245                : :Chapter 6
    00:32:53.513                : :Chapter 7
    00:37:45.097                : :Chapter 8
    00:43:36.239                : :Chapter 9
    00:49:28.883                : :Chapter 10
    00:55:40.087                : :Chapter 11
    01:00:08.480                : :Chapter 12
    01:05:07.529                : :Chapter 13
    01:10:51.122                : :Chapter 14
    01:17:03.369                : :Chapter 15
    01:25:01.263                : :Chapter 16
    01:35:37.898                : :Chapter 17
    01:39:38.889                : :Chapter 18
    01:48:05.062                : :Chapter 19
    01:52:37.751                : :Chapter 20

     

  • Peso: 5.36 GiB

Sinopsis

Este drama histórico presenta los inicios de la carrera del abogado de la NAACP Thurgood Marshall (Chadwick Boseman), que se convertirá en el primer juez afroamericano de la Corte Suprema de Estados Unidos. En el Connecticut de 1940, Marshall defiende a un chófer negro (Sterling K. Brown) que es acusado de violar e intentar asesinar a su jefa blanca (Kate Hudson).

Español Latino AC3 5.1 – Ingles DTS + AC3 5.1

Ficha técnica

Video trailer de la película

Enlaces de descarga

Rip de Bluray

Descargar Marshall (2017) Full HD 1080p Latino




Aportes de DPeliculasHDmega la pass es:dpeliculashdmega.org Aportes de CinemaniaHD la pass es:cinemaniahdd.com

Películas relacionadas

  • El bosque (2017) Temporada 1 NF WEB-DL 1080p Latino

    El bosque (2017) Temporada 1 NF WEB-DL 1080p Latino

    2017
    El bosque (2017) Temporada 1 NF WEB-DL 1080p Latino

    0.0 0h 50m 2017

    Tras la desaparición de una adolescente en el bosque de las Ardenas, la policía local y una profesora...

    Director: Delinda Jacobs

    Género: Crimen

    Actores: Suzanne Clément

  • La Chica Del Tren (2016) 1080p Latino

    La Chica Del Tren (2016) 1080p Latino

    2016
    La Chica Del Tren (2016) 1080p Latino

    0.0 1h 52m 2016

    Descargar La Chica Del Tren (2016) 1080p Latino. Rachel (Emily Blunt) es una mujer devastada por su reciente...

    Director: Tate Taylor

    Género: Crimen

    Actores: Tim Wiencis

  • La Chica Del Tren (2016) Full HD 1080p Latino

    La Chica Del Tren (2016) Full HD 1080p Latino

    2016
    La Chica Del Tren (2016) Full HD 1080p Latino

    4.5 2h 0m 2016

    Descargar La Chica Del Tren (2016) Full HD 1080p Latino. Rachel (Emily Blunt) es una mujer devastada...

    Director: Tate Taylor

    Género: Actualizadas

    Actores: Tod Rainey

  • La Chica Del Tren (2016) REMUX 1080p Latino

    La Chica Del Tren (2016) REMUX 1080p Latino

    2016
    La Chica Del Tren (2016) REMUX 1080p Latino

    5.0 1h 52m 2016

    Descargar La Chica Del Tren (2016) REMUX 1080p Latino. Rachel (Emily Blunt) es una mujer devastada por...

    Director: Tate Taylor

    Género: Crimen

    Actores: Tod Rainey

  • La Chica Del Tren (2016) 4K UHD HDR Latino

    La Chica Del Tren (2016) 4K UHD HDR Latino

    2016
    La Chica Del Tren (2016) 4K UHD HDR Latino

    0.0 1h 52m 2016

    Descargar La Chica Del Tren (2016) 4K UHD HDR Latino. Rachel (Emily Blunt) es una mujer devastada por...

    Director: Tate Taylor

    Género: 4K HDR

    Actores: Tim Wiencis

Comentarios 0