×

¿Problemas para descargar con Mozilla, EDGE? Deshabilita la opción "Abrir vinculos en una pestaña nueva" tal como lo muestra ésta imagen.

Marshall (2017) HD 1080p Latino

1.206 vistas

Información de Marshall (2017) HD 1080p Latino

Datos de la película

  • Calidad: 1080p
  • Audio: Se especifica abajo de la Sinopsis
  • Subtitulos: Español Latino SRT- FORZADOS SRT
  • Resolución: 1920x960
  • Formato: MKV
  • Codec: H.264
  • Encoder: cinemaniahdd
  • Mediainfo: Clic para Mostrar Datos Ver
  • Marshall, El origen de la justicia (2017) HD 1080p Latino [CNMNHDD].mkv
    Format                      : Matroska
    Format version              : Version 4
    File size                   : 3.77 GiB
    Duration                    : 1 h 58 min
    Overall bit rate            : 4 550 kb/s
    Movie name                  : Marshall, El origen de la justicia (2017) HD - CinemaniaHDD.Net
    Encoded date                : UTC 2020-11-17 04:21:32
    Writing application         : mkvmerge v51.0.0 ('I Wish') 64-bit
    Writing library             : libebml v1.4.0 + libmatroska v1.6.2

    Video
    ID                          : 1
    Format                      : AVC
    Format/Info                 : Advanced Video Codec
    Format profile              : Main@L4
    Format settings             : CABAC / 4 Ref Frames
    Format settings, CABAC      : Yes
    Format settings, Reference  : 4 frames
    Codec ID                    : V_MPEG4/ISO/AVC
    Duration                    : 1 h 58 min
    Bit rate                    : 3 500 kb/s
    Width                       : 1 920 pixels
    Height                      : 960 pixels
    Display aspect ratio        : 2.000
    Frame rate mode             : Variable
    Frame rate                  : 23.593 FPS
    Color space                 : YUV
    Chroma subsampling          : 4:2:0
    Bit depth                   : 8 bits
    Scan type                   : Progressive
    Bits/(Pixel*Frame)          : 0.080
    Stream size                 : 2.86 GiB (76%)
    Title                       : CinemaniaHDD
    Writing library             : x264 core 157 r2935 545de2f
    Encoding settings           : cabac=1 / ref=4 / deblock=1:0:0 / analyse=0x1:0x111 / me=hex / subme=8 / psy=1 / psy_rd=1.00:0.00 / mixed_ref=1 / me_range=16 / chroma_me=1 / trellis=2 / 8x8dct=0 / cqm=0 / deadzone=21,11 / fast_pskip=1 / chroma_qp_offset=-2 / threads=24 / lookahead_threads=4 / sliced_threads=0 / nr=0 / decimate=1 / interlaced=0 / bluray_compat=0 / constrained_intra=0 / bframes=3 / b_pyramid=2 / b_adapt=1 / b_bias=0 / direct=3 / weightb=1 / open_gop=0 / weightp=2 / keyint=240 / keyint_min=24 / scenecut=40 / intra_refresh=0 / rc_lookahead=50 / rc=abr / mbtree=1 / bitrate=3500 / ratetol=1.0 / qcomp=0.60 / qpmin=0 / qpmax=69 / qpstep=4 / vbv_maxrate=20000 / vbv_bufsize=25000 / nal_hrd=none / filler=0 / ip_ratio=1.40 / aq=1:1.00
    Default                     : Yes
    Forced                      : No
    Color range                 : Limited
    Color primaries             : BT.709
    Transfer characteristics    : BT.709
    Matrix coefficients         : BT.709

    Audio #1
    ID                          : 2
    Format                      : AC-3
    Format/Info                 : Audio Coding 3
    Commercial name             : Dolby Digital
    Codec ID                    : A_AC3
    Duration                    : 1 h 58 min
    Bit rate mode               : Constant
    Bit rate                    : 640 kb/s
    Channel(s)                  : 6 channels
    Channel layout              : L R C LFE Ls Rs
    Sampling rate               : 48.0 kHz
    Frame rate                  : 31.250 FPS (1536 SPF)
    Compression mode            : Lossy
    Delay relative to video     : -5 ms
    Stream size                 : 542 MiB (14%)
    Title                       : Español latino [CinemaniaHDD]
    Language                    : Spanish
    Service kind                : Complete Main
    Default                     : Yes
    Forced                      : No

    Audio #2
    ID                          : 3
    Format                      : AC-3
    Format/Info                 : Audio Coding 3
    Commercial name             : Dolby Digital
    Codec ID                    : A_AC3
    Duration                    : 1 h 58 min
    Bit rate mode               : Constant
    Bit rate                    : 448 kb/s
    Channel(s)                  : 6 channels
    Channel layout              : L R C LFE Ls Rs
    Sampling rate               : 48.0 kHz
    Frame rate                  : 31.250 FPS (1536 SPF)
    Compression mode            : Lossy
    Delay relative to video     : -5 ms
    Stream size                 : 380 MiB (10%)
    Title                       : Inglés [CinemaniaHDD]
    Language                    : English
    Service kind                : Complete Main
    Default                     : No
    Forced                      : No

    Text #1
    ID                          : 4
    Format                      : UTF-8
    Codec ID                    : S_TEXT/UTF8
    Codec ID/Info               : UTF-8 Plain Text
    Duration                    : 1 h 57 min
    Bit rate                    : 0 b/s
    Count of elements           : 12
    Stream size                 : 461 Bytes (0%)
    Title                       : Forzados [CinemaniaHDD]
    Language                    : Spanish
    Default                     : Yes
    Forced                      : Yes

    Text #2
    ID                          : 5
    Format                      : UTF-8
    Codec ID                    : S_TEXT/UTF8
    Codec ID/Info               : UTF-8 Plain Text
    Duration                    : 1 h 57 min
    Bit rate                    : 69 b/s
    Count of elements           : 1862
    Stream size                 : 60.1 KiB (0%)
    Title                       : Español latino [CinemaniaHDD]
    Language                    : Spanish
    Default                     : No
    Forced                      : No

    Menu
    00:00:00.000                : :Chapter 1
    00:05:08.892                : :Chapter 2
    00:10:40.140                : :Chapter 3
    00:16:01.752                : :Chapter 4
    00:20:57.339                : :Chapter 5
    00:27:01.245                : :Chapter 6
    00:32:53.513                : :Chapter 7
    00:37:45.097                : :Chapter 8
    00:43:36.239                : :Chapter 9
    00:49:28.883                : :Chapter 10
    00:55:40.087                : :Chapter 11
    01:00:08.480                : :Chapter 12
    01:05:07.529                : :Chapter 13
    01:10:51.122                : :Chapter 14
    01:17:03.369                : :Chapter 15
    01:25:01.263                : :Chapter 16
    01:35:37.898                : :Chapter 17
    01:39:38.889                : :Chapter 18
    01:48:05.062                : :Chapter 19
    01:52:37.751                : :Chapter 20

     

  • Peso: 3.77 GiB

Sinopsis

Este drama histórico presenta los inicios de la carrera del abogado de la NAACP Thurgood Marshall (Chadwick Boseman), que se convertirá en el primer juez afroamericano de la Corte Suprema de Estados Unidos. En el Connecticut de 1940, Marshall defiende a un chófer negro (Sterling K. Brown) que es acusado de violar e intentar asesinar a su jefa blanca (Kate Hudson).

Español Latino AC3 5.1 – Ingles AC3 5.1

Ficha técnica

Video trailer de la película

Enlaces de descarga

Rip de Bluray

Descargar Marshall (2017) HD 1080p Latino




Aportes de DPeliculasHDmega la pass es:dpeliculashdmega.org Aportes de CinemaniaHD la pass es:cinemaniahdd.com
Guardado en : Drama , HD 1080p

Películas relacionadas

descargar Marshall (2017) HD 1080p Latino 1080p 1080p gratis, Marshall (2017) HD 1080p Latino 1080p mega 1 link, Marshall (2017) HD 1080p Latino 1080p pelicula completa, descargar Marshall (2017) HD 1080p Latino 1080p gratis en mega.

Marshall (2017) HD 1080p Latino pelicula full hd, Marshall (2017) HD 1080p Latino mega latino, Marshall (2017) HD 1080p Latino 4k latino, Marshall (2017) HD 1080p Latino pelicula completa, Marshall (2017) HD 1080p Latino descargar gratis, descargar Marshall (2017) HD 1080p Latino pelicula latino, Marshall (2017) HD 1080p Latino 1 link mega, Marshall (2017) HD 1080p Latino 1 link google drive, Marshall (2017) HD 1080p Latino hd 1080p latino.
Comentarios 0