×

¿Problemas para descargar con Mozilla, EDGE? Deshabilita la opción "Abrir vinculos en una pestaña nueva" tal como lo muestra ésta imagen.

Marrying Mr. Darcy (2018) WEB-DL 1080p Latino

780 vistas

Información de Marrying Mr. Darcy (2018) WEB-DL 1080p Latino

Datos de la película

  • Calidad: WEBDL
  • Audio: Español Latino AC3 2.0 - Ingles AC3 2.0
  • Subtitulos: Español Latino SRT- FORZADOS SRT
  • Resolución: 1920x1080
  • Formato:
  • Codec: H.264
  • Encoder: cinemaniahdd
  • Mediainfo: Clic para Mostrar Datos Ver
  • Marrying Mr. Darcy (2018) WEB-DL 1080p Latino.mkv
    Format                      : Matroska
    Format version              : Version 4
    File size                   : 2.27 GiB
    Duration                    : 1 h 26 min
    Overall bit rate mode       : Variable
    Overall bit rate            : 3 762 kb/s
    Movie name                  : La Boda Del Señor Darcy (2018) - CinemaniaHDD.Net
    Encoded date                : UTC 2020-04-15 22:36:42
    Writing application         : mkvmerge v42.0.0 ('Overtime') 64-bit
    Writing library             : libebml v1.3.10 + libmatroska v1.5.2

    Video
    ID                          : 1
    Format                      : AVC
    Format/Info                 : Advanced Video Codec
    Format profile              : High@L4
    Format settings             : CABAC / 4 Ref Frames
    Format settings, CABAC      : Yes
    Format settings, ReFrames   : 4 frames
    Codec ID                    : V_MPEG4/ISO/AVC
    Duration                    : 1 h 26 min
    Bit rate mode               : Variable
    Bit rate                    : 3 379 kb/s
    Maximum bit rate            : 5 100 kb/s
    Width                       : 1 920 pixels
    Height                      : 1 080 pixels
    Display aspect ratio        : 16:9
    Frame rate mode             : Constant
    Frame rate                  : 30.000 FPS
    Color space                 : YUV
    Chroma subsampling          : 4:2:0
    Bit depth                   : 8 bits
    Scan type                   : Progressive
    Bits/(Pixel*Frame)          : 0.054
    Stream size                 : 2.04 GiB (90%)
    Title                       : CinemaniaHDD
    Default                     : Yes
    Forced                      : No

    Audio #1
    ID                          : 2
    Format                      : AAC LC
    Format/Info                 : Advanced Audio Codec Low Complexity
    Codec ID                    : A_AAC-2
    Duration                    : 1 h 26 min
    Bit rate                    : 192 kb/s
    Channel(s)                  : 2 channels
    Channel layout              : L R
    Sampling rate               : 48.0 kHz
    Frame rate                  : 46.875 FPS (1024 SPF)
    Compression mode            : Lossy
    Stream size                 : 117 MiB (5%)
    Title                       : Español latino [CinemaniaHDD]
    Language                    : Spanish
    Default                     : Yes
    Forced                      : No

    Audio #2
    ID                          : 3
    Format                      : AAC LC
    Format/Info                 : Advanced Audio Codec Low Complexity
    Codec ID                    : A_AAC-2
    Duration                    : 1 h 26 min
    Bit rate                    : 192 kb/s
    Channel(s)                  : 2 channels
    Channel layout              : L R
    Sampling rate               : 48.0 kHz
    Frame rate                  : 46.875 FPS (1024 SPF)
    Compression mode            : Lossy
    Stream size                 : 117 MiB (5%)
    Title                       : Inglés [CinemaniaHDD]
    Language                    : English
    Default                     : No
    Forced                      : No

    Text #1
    ID                          : 4
    Format                      : UTF-8
    Codec ID                    : S_TEXT/UTF8
    Codec ID/Info               : UTF-8 Plain Text
    Duration                    : 1 s 320 ms
    Bit rate                    : 72 b/s
    Count of elements           : 1
    Stream size                 : 12.0 Bytes (0%)
    Title                       : Forzados [CinemaniaHDD]
    Language                    : Spanish
    Default                     : Yes
    Forced                      : Yes

    Text #2
    ID                          : 5
    Format                      : UTF-8
    Codec ID                    : S_TEXT/UTF8
    Codec ID/Info               : UTF-8 Plain Text
    Duration                    : 1 h 25 min
    Bit rate                    : 70 b/s
    Count of elements           : 1391
    Stream size                 : 44.3 KiB (0%)
    Title                       : Español latino [CinemaniaHDD]
    Language                    : Spanish
    Default                     : No
    Forced                      : No

     

  • Peso: 2.27 GiB

Sinopsis

El serio y reservado empresario Donovan Darcy y la dulce maestra de escuela Elizabeth Scott están muy enamorados, pero sus personalidades son totalmente opuestas. No es extraño entonces que cuando Darcy y Elizabeth se comprometen, los preparativos para su boda de ensueño estén más cerca de volverse una pesadilla que un romántico sueño.

Ficha técnica

Video trailer de la película

Enlaces de descarga

Rip de Bluray

Descargar Marrying Mr. Darcy (2018) WEB-DL 1080p Latino




Aportes de DPeliculasHDmega la pass es:dpeliculashdmega.org Aportes de CinemaniaHD la pass es:cinemaniahdd.com
Guardado en : Película de TV , Romance

Películas relacionadas

  • After: Amor infinito (2022) AMZN WEB-DL 1080p Latino

    After: Amor infinito (2022) AMZN WEB-DL 1080p Latino

    2022
    After: Amor infinito (2022) AMZN WEB-DL 1080p Latino

    1h 35m 2022

    Descargar After: Amor infinito (2022) AMZN WEB-DL 1080p Latino. El amor de Tessa y Hardin nunca ha sido...

    Director: Castille Landon

    Género: Drama

    Actores: Velizar Nikolaev Biney

  • First Love (2022) AMZN WEB-DL 1080p Latino

    First Love (2022) AMZN WEB-DL 1080p Latino

    2022
    First Love (2022) AMZN WEB-DL 1080p Latino

    1h 35m 2022

    Descargar First Love (2022) AMZN WEB-DL 1080p Latino. Una tierna mirada sobre la entrada en la edad adulta....

    Director: Joshua Glassman

    Género: Drama

    Actores: Vincent Ventresca

  • Romance en Verona (2022) NF WEB-DL 1080p Latino

    Romance en Verona (2022) NF WEB-DL 1080p Latino

    2022
    Romance en Verona (2022) NF WEB-DL 1080p Latino

    1h 55m 2022

    Descargar Romance en Verona (2022) NF WEB-DL 1080p Latino. Una joven hace un viaje a la romántica Verona,...

    Director: Mark Steven Johnson

    Género: Comedia

    Actores: Tom Hopper

descargar Marrying Mr. Darcy (2018) WEB-DL 1080p Latino WEBDL 1080p gratis, Marrying Mr. Darcy (2018) WEB-DL 1080p Latino WEBDL mega 1 link, Marrying Mr. Darcy (2018) WEB-DL 1080p Latino WEBDL pelicula completa, descargar Marrying Mr. Darcy (2018) WEB-DL 1080p Latino WEBDL gratis en mega.

Marrying Mr. Darcy (2018) WEB-DL 1080p Latino pelicula full hd, Marrying Mr. Darcy (2018) WEB-DL 1080p Latino mega latino, Marrying Mr. Darcy (2018) WEB-DL 1080p Latino 4k latino, Marrying Mr. Darcy (2018) WEB-DL 1080p Latino pelicula completa, Marrying Mr. Darcy (2018) WEB-DL 1080p Latino descargar gratis, descargar Marrying Mr. Darcy (2018) WEB-DL 1080p Latino pelicula latino, Marrying Mr. Darcy (2018) WEB-DL 1080p Latino 1 link mega, Marrying Mr. Darcy (2018) WEB-DL 1080p Latino 1 link google drive, Marrying Mr. Darcy (2018) WEB-DL 1080p Latino hd 1080p latino.
Comentarios 0