×

¿Problemas para descargar con Mozilla, EDGE? Deshabilita la opción "Abrir vinculos en una pestaña nueva" tal como lo muestra ésta imagen.

Historia De Un Matrimonio (2019) REMUX 1080p Latino

252 vistas

Información de Historia De Un Matrimonio (2019) REMUX 1080p Latino

Datos de la película

  • Calidad: Full 1080p
  • Audio: Español Latino AC3 5.1 Netflix - Ingles DTS 5.1 BLURAY
  • Subtitulos: Español Latino SRT- FORZADOS SRT
  • Resolución: 1920x1080p
  • Formato: MKV
  • Codec: H.264
  • Encoder: Melkor
  • Mediainfo: Clic para Mostrar Datos Ver
  • Historia De Un Matrimonio (2019) REMUX 1080p Latino-CMHDD.mkv
    Format                      : Matroska
    Format version              : Version 4
    File size                   : 30.8 GiB
    Duration                    : 2 h 17 min
    Overall bit rate mode       : Variable
    Overall bit rate            : 32.0 Mb/s
    Movie name                  : Marriage Story (2019) CinemaniaHDD.Net
    Encoded date                : UTC 2020-07-22 01:29:46
    Writing application         : mkvmerge v46.0.0 ('No Deeper Escape') 64-bit
    Writing library             : libebml v1.3.10 + libmatroska v1.5.2
    Attachments                 : CINEMANIAHD.png

    Video
    ID                          : 1
    ID in the original source m : 4113 (0x1011)
    Format                      : AVC
    Format/Info                 : Advanced Video Codec
    Format profile              : High@L4.1
    Format settings             : CABAC / 4 Ref Frames
    Format settings, CABAC      : Yes
    Format settings, Reference  : 4 frames
    Format settings, GOP        : M=3, N=12
    Codec ID                    : V_MPEG4/ISO/AVC
    Duration                    : 2 h 17 min
    Bit rate mode               : Variable
    Bit rate                    : 28.3 Mb/s
    Maximum bit rate            : 37.0 Mb/s
    Width                       : 1 920 pixels
    Height                      : 1 080 pixels
    Display aspect ratio        : 16:9
    Frame rate mode             : Constant
    Frame rate                  : 23.976 (24000/1001) FPS
    Color space                 : YUV
    Chroma subsampling          : 4:2:0
    Bit depth                   : 8 bits
    Scan type                   : Progressive
    Bits/(Pixel*Frame)          : 0.569
    Stream size                 : 27.1 GiB (88%)
    Title                       : REMUX 1080p [CinemaniaHDD]
    Language                    : English
    Default                     : Yes
    Forced                      : Yes
    Original source medium      : Blu-ray

    Audio #1
    ID                          : 2
    Format                      : AC-3
    Format/Info                 : Audio Coding 3
    Commercial name             : Dolby Digital
    Codec ID                    : A_AC3
    Duration                    : 2 h 17 min
    Bit rate mode               : Constant
    Bit rate                    : 640 kb/s
    Channel(s)                  : 6 channels
    Channel layout              : L R C LFE Ls Rs
    Sampling rate               : 48.0 kHz
    Frame rate                  : 31.250 FPS (1536 SPF)
    Compression mode            : Lossy
    Stream size                 : 630 MiB (2%)
    Title                       : Español Latino [CinemaniaHDD]
    Language                    : Spanish
    Service kind                : Complete Main
    Default                     : Yes
    Forced                      : Yes

    Audio #2
    ID                          : 3
    ID in the original source m : 4352 (0x1100)
    Format                      : DTS XLL
    Format/Info                 : Digital Theater Systems
    Commercial name             : DTS-HD Master Audio
    Codec ID                    : A_DTS
    Duration                    : 2 h 17 min
    Bit rate mode               : Variable
    Bit rate                    : 3 190 kb/s
    Channel(s)                  : 6 channels
    Channel layout              : C L R Ls Rs LFE
    Sampling rate               : 48.0 kHz
    Frame rate                  : 93.750 FPS (512 SPF)
    Bit depth                   : 24 bits
    Compression mode            : Lossless
    Stream size                 : 3.05 GiB (10%)
    Title                       : Ingles [CinemaniaHDD]
    Language                    : English
    Default                     : No
    Forced                      : No
    Original source medium      : Blu-ray

    Text #1
    ID                          : 4
    Format                      : UTF-8
    Codec ID                    : S_TEXT/UTF8
    Codec ID/Info               : UTF-8 Plain Text
    Duration                    : 2 h 8 min
    Bit rate                    : 1 b/s
    Count of elements           : 45
    Stream size                 : 1.32 KiB (0%)
    Title                       : Forzados-SRT [CinemaniaHDD]
    Language                    : Spanish
    Default                     : Yes
    Forced                      : Yes

    Text #2
    ID                          : 5
    Format                      : UTF-8
    Codec ID                    : S_TEXT/UTF8
    Codec ID/Info               : UTF-8 Plain Text
    Duration                    : 2 h 16 min
    Bit rate                    : 78 b/s
    Count of elements           : 2322
    Stream size                 : 78.4 KiB (0%)
    Title                       : Español-SRT [CinemaniaHDD]
    Language                    : Spanish
    Default                     : No
    Forced                      : No

    Text #3
    ID                          : 6
    Format                      : UTF-8
    Codec ID                    : S_TEXT/UTF8
    Codec ID/Info               : UTF-8 Plain Text
    Duration                    : 2 h 11 min
    Bit rate                    : 92 b/s
    Count of elements           : 2559
    Stream size                 : 88.5 KiB (0%)
    Title                       : Ingles-SRT [CinemaniaHDD]
    Language                    : English
    Default                     : No
    Forced                      : No

    Menu
    00:00:00.000                : en:Chapter 01
    00:09:49.213                : en:Chapter 02
    00:15:44.860                : en:Chapter 03
    00:21:54.730                : en:Chapter 04
    00:32:34.452                : en:Chapter 05
    00:44:36.965                : en:Chapter 06
    00:49:18.497                : en:Chapter 07
    01:04:05.883                : en:Chapter 08
    01:13:27.986                : en:Chapter 09
    01:24:40.075                : en:Chapter 10
    01:31:15.928                : en:Chapter 11
    01:41:26.789                : en:Chapter 12
    01:47:05.919                : en:Chapter 13
    01:57:25.079                : en:Chapter 14
    02:00:09.076                : en:Chapter 15
    02:04:36.135                : en:Chapter 16

  • Peso: 30.8 GiB

Sinopsis

Descargar Historia De Un Matrimonio (2019) REMUX 1080p Latino. Un director de teatro y su mujer, actriz, luchan por superar un divorcio que les lleva al extremo tanto en lo personal como en lo creativo. Además de aprender a convivir para lograr una estabilidad en la vida de su pequeño hijo.

Ficha técnica

Video trailer de la película

Enlaces de descarga

Rip de Bluray

Descargar Historia De Un Matrimonio (2019) REMUX 1080p Latino




Aportes de DPeliculasHDmega la pass es:dpeliculashdmega.org Aportes de CinemaniaHD la pass es:cinemaniahdd.com
Guardado en : Drama , Remux

Películas relacionadas

descargar Historia De Un Matrimonio (2019) REMUX 1080p Latino Full 1080p 1080p gratis, Historia De Un Matrimonio (2019) REMUX 1080p Latino Full 1080p mega 1 link, Historia De Un Matrimonio (2019) REMUX 1080p Latino Full 1080p pelicula completa, descargar Historia De Un Matrimonio (2019) REMUX 1080p Latino Full 1080p gratis en mega.

Historia De Un Matrimonio (2019) REMUX 1080p Latino pelicula full hd, Historia De Un Matrimonio (2019) REMUX 1080p Latino mega latino, Historia De Un Matrimonio (2019) REMUX 1080p Latino 4k latino, Historia De Un Matrimonio (2019) REMUX 1080p Latino pelicula completa, Historia De Un Matrimonio (2019) REMUX 1080p Latino descargar gratis, descargar Historia De Un Matrimonio (2019) REMUX 1080p Latino pelicula latino, Historia De Un Matrimonio (2019) REMUX 1080p Latino 1 link mega, Historia De Un Matrimonio (2019) REMUX 1080p Latino 1 link google drive, Historia De Un Matrimonio (2019) REMUX 1080p Latino hd 1080p latino.
Comentarios 0