×

¿Problemas para descargar con Mozilla, EDGE? Deshabilita la opción "Abrir vinculos en una pestaña nueva" tal como lo muestra ésta imagen.

Marcados por la Muerte (2018) AMZN WEB-DL 1080p Latino

1.063 vistas

Información de Marcados por la Muerte (2018) AMZN WEB-DL 1080p Latino

Datos de la película

  • Calidad: WEBDL
  • Audio: Español Latino AC3 2.0 - Ingles AC3 2.0
  • Subtitulos: No
  • Resolución: 1920x1080
  • Formato: MKV
  • Codec: H.264
  • Encoder: cinemaniahdd
  • Mediainfo: Clic para Mostrar Datos Ver
  • Marcados por la Muerte (2018) AMZN WEB-DL 1080p Latino.mkv
    Format                      : Matroska
    Format version              : Version 4
    File size                   : 5.33 GiB
    Duration                    : 1 h 30 min
    Overall bit rate mode       : Constant
    Overall bit rate            : 8 402 kb/s
    Movie name                  : Marcados por la Muerte (2018) - CinemaniaHDD.Net
    Encoded date                : UTC 2020-01-19 02:34:13
    Writing application         : mkvmerge v38.0.0 ('The Silent Type') 64-bit
    Writing library             : libebml v1.3.9 + libmatroska v1.5.2

    Video
    ID                          : 1
    Format                      : AVC
    Format/Info                 : Advanced Video Codec
    Format profile              : High@L4
    Format settings             : CABAC / 4 Ref Frames
    Format settings, CABAC      : Yes
    Format settings, ReFrames   : 4 frames
    Codec ID                    : V_MPEG4/ISO/AVC
    Duration                    : 1 h 30 min
    Bit rate mode               : Constant
    Bit rate                    : 7 923 kb/s
    Nominal bit rate            : 10 000 kb/s
    Width                       : 1 920 pixels
    Height                      : 1 080 pixels
    Display aspect ratio        : 16:9
    Frame rate mode             : Constant
    Frame rate                  : 24.000 FPS
    Color space                 : YUV
    Chroma subsampling          : 4:2:0
    Bit depth                   : 8 bits
    Scan type                   : Progressive
    Bits/(Pixel*Frame)          : 0.159
    Stream size                 : 5.02 GiB (94%)
    Title                       : CinemaniaHDD.Net
    Default                     : Yes
    Forced                      : No
    Color range                 : Limited
    Color primaries             : BT.709
    Transfer characteristics    : BT.709
    Matrix coefficients         : BT.709

    Audio #1
    ID                          : 2
    Format                      : AC-3
    Format/Info                 : Audio Coding 3
    Commercial name             : Dolby Digital
    Codec ID                    : A_AC3
    Duration                    : 1 h 30 min
    Bit rate mode               : Constant
    Bit rate                    : 256 kb/s
    Channel(s)                  : 2 channels
    Channel layout              : L R
    Sampling rate               : 48.0 kHz
    Frame rate                  : 31.250 FPS (1536 SPF)
    Bit depth                   : 16 bits
    Compression mode            : Lossy
    Delay relative to video     : -2 s 0 ms
    Stream size                 : 166 MiB (3%)
    Title                       : Español latino [CinemaniaHDD]
    Language                    : Spanish
    Service kind                : Complete Main
    Default                     : Yes
    Forced                      : No

    Audio #2
    ID                          : 3
    Format                      : E-AC-3
    Format/Info                 : Enhanced AC-3
    Commercial name             : Dolby Digital Plus
    Codec ID                    : A_EAC3
    Duration                    : 1 h 30 min
    Bit rate mode               : Constant
    Bit rate                    : 224 kb/s
    Channel(s)                  : 2 channels
    Channel layout              : L R
    Sampling rate               : 48.0 kHz
    Frame rate                  : 31.250 FPS (1536 SPF)
    Compression mode            : Lossy
    Delay relative to video     : -2 s 0 ms
    Stream size                 : 146 MiB (3%)
    Title                       : Inglés [CinemaniaHDD]
    Language                    : English
    Service kind                : Complete Main
    Default                     : No
    Forced                      : No

     

  • Peso: 5.33 GiB

Sinopsis

Por fin, graduados y fuera de Croacia, camino de lo que parecía ser la fiesta de sus vidas… pero para Julia y sus amigas el viaje de fin de curso se convierte en uno de horror, del cuál probablemente algunas no vuelvan a casa.

Ficha técnica

  • Titulo original: Die letzte Party deines Lebens
  • Fecha de lanzamiento: 22-03-2018 (Austria)
  • Director: Dominik Hartl
  • Género: Suspenso, Terror

Video trailer de la película

Enlaces de descarga

Rip de Bluray

Descargar Marcados por la Muerte (2018) AMZN WEB-DL 1080p Latino




Aportes de DPeliculasHDmega la pass es:dpeliculashdmega.org Aportes de CinemaniaHD la pass es:cinemaniahdd.com
Guardado en : Suspenso , Terror

Películas relacionadas

  • La Máquina infernal (2022) WEB-DL 1080p Latino

    La Máquina infernal (2022) WEB-DL 1080p Latino

    2022
    La Máquina infernal (2022) WEB-DL 1080p Latino

    1h 47m 2022

    Descargar La Máquina infernal (2022) WEB-DL 1080p Latino. Un fan obsesivo saca de su escondite al solitario...

    Director: Andrew Hunt

    Género: Suspenso

    Actores: Rocco Salata

  • Borrego: Sal Del Camino (2022) HD 1080p Latino

    Borrego: Sal Del Camino (2022) HD 1080p Latino

    2022
    Borrego: Sal Del Camino (2022) HD 1080p Latino

    1h 42m 2022

    Descargar Borrego: Sal Del Camino (2022) HD 1080p Latino. Una joven botánica se traslada a un pequeño...

    Director: Jesse Harris

    Género: Crimen

    Actores: Olivia Trujillo

  • Borrego: Sal Del Camino (2022) REMUX 1080p Latino

    Borrego: Sal Del Camino (2022) REMUX 1080p Latino

    2022
    Borrego: Sal Del Camino (2022) REMUX 1080p Latino

    1h 42m 2022

    Descargar Borrego: Sal Del Camino (2022) REMUX 1080p Latino. Una joven botánica se traslada a un pequeño...

    Director: Jesse Harris

    Género: Crimen

    Actores: Olivia Trujillo

  • Tren Bala (2022) WEB-DL 4K UHD HDR Latino

    Tren Bala (2022) WEB-DL 4K UHD HDR Latino

    2022
    Tren Bala (2022) WEB-DL 4K UHD HDR Latino

    2h 7m 2022

    Descargar Tren Bala (2022) WEB-DL 4K UHD HDR Latino. El desafortunado asesino "Catarina" está decidido...

    Director: Paul Barry

    Género: 4K HDR

    Actores: Zooey Miyoshi

descargar Marcados por la Muerte (2018) AMZN WEB-DL 1080p Latino WEBDL 1080p gratis, Marcados por la Muerte (2018) AMZN WEB-DL 1080p Latino WEBDL mega 1 link, Marcados por la Muerte (2018) AMZN WEB-DL 1080p Latino WEBDL pelicula completa, descargar Marcados por la Muerte (2018) AMZN WEB-DL 1080p Latino WEBDL gratis en mega.

Marcados por la Muerte (2018) AMZN WEB-DL 1080p Latino pelicula full hd, Marcados por la Muerte (2018) AMZN WEB-DL 1080p Latino mega latino, Marcados por la Muerte (2018) AMZN WEB-DL 1080p Latino 4k latino, Marcados por la Muerte (2018) AMZN WEB-DL 1080p Latino pelicula completa, Marcados por la Muerte (2018) AMZN WEB-DL 1080p Latino descargar gratis, descargar Marcados por la Muerte (2018) AMZN WEB-DL 1080p Latino pelicula latino, Marcados por la Muerte (2018) AMZN WEB-DL 1080p Latino 1 link mega, Marcados por la Muerte (2018) AMZN WEB-DL 1080p Latino 1 link google drive, Marcados por la Muerte (2018) AMZN WEB-DL 1080p Latino hd 1080p latino.
Comentarios 0