×

¿Problemas para descargar con Mozilla, EDGE? Deshabilita la opción "Abrir vinculos en una pestaña nueva" tal como lo muestra ésta imagen.

Marcados al nacer (2023) NF WEB-DL 1080p Latino

78 vistas

Información de Marcados al nacer (2023) NF WEB-DL 1080p Latino

Datos de la película

  • Calidad: WEBDL
  • Audio: Español Latino AC3 5.1 Netflix - Ingles AC3 5.1 Netflix
  • Subtitulos: Español Latino SRT- FORZADOS SRT
  • Resolución: 1920x1080p
  • Formato: MKV
  • Codec: H.264
  • Encoder: Melkor
  • Mediainfo: Clic para Mostrar Datos Ver
  • Stamped from the Beginning (2023) NF WEB 1080p Latino.mkv
    Format                      : Matroska
    Format version              : Version 4
    File size                   : 3.46 GiB
    Duration                    : 1 h 32 min
    Overall bit rate mode       : Variable
    Overall bit rate            : 5 357 kb/s
    Movie name                  : Stamped from the Beginning (2023) CinemaniaHDD.Net
    Encoded date                : UTC 2023-11-25 05:52:03
    Writing application         : mkvmerge v59.0.0 ('Shining Star') 64-bit
    Writing library             : libebml v1.4.2 + libmatroska v1.6.4
    Attachments                 : CINEMANIAHD.png
    Site                        : CinemaniaHDD.Net
    Uploader                    : Melkor

    Video
    ID                          : 1
    Format                      : AVC
    Format/Info                 : Advanced Video Codec
    Format profile              : Main@L4
    Format settings             : CABAC / 3 Ref Frames
    Format settings, CABAC      : Yes
    Format settings, Reference  : 3 frames
    Codec ID                    : V_MPEG4/ISO/AVC
    Duration                    : 1 h 32 min
    Bit rate mode               : Variable
    Bit rate                    : 4 587 kb/s
    Nominal bit rate            : 5 000 kb/s
    Maximum bit rate            : 7 500 kb/s
    Width                       : 1 920 pixels
    Height                      : 1 080 pixels
    Display aspect ratio        : 16:9
    Frame rate mode             : Constant
    Frame rate                  : 23.976 (24000/1001) FPS
    Color space                 : YUV
    Chroma subsampling          : 4:2:0
    Bit depth                   : 8 bits
    Scan type                   : Progressive
    Bits/(Pixel*Frame)          : 0.092
    Stream size                 : 2.96 GiB (86%)
    Title                       : WEB HD1080p [CinemaniaHDD]
    Writing library             : x264 core 148 r2727 7d026e8
    Encoding settings           : cabac=1 / ref=3 / deblock=1:0:0 / analyse=0x1:0x111 / me=umh / subme=10 / psy=1 / psy_rd=1.00:0.00 / mixed_ref=1 / me_range=24 / chroma_me=1 / trellis=2 / 8x8dct=0 / cqm=0 / deadzone=21,11 / fast_pskip=1 / chroma_qp_offset=-2 / threads=6 / lookahead_threads=1 / sliced_threads=0 / nr=0 / decimate=1 / interlaced=0 / bluray_compat=0 / stitchable=1 / constrained_intra=0 / bframes=2 / b_pyramid=0 / b_adapt=2 / b_bias=0 / direct=3 / weightb=1 / open_gop=0 / weightp=2 / keyint=240 / keyint_min=121 / scenecut=0 / intra_refresh=0 / rc_lookahead=48 / rc=2pass / mbtree=1 / bitrate=5000 / ratetol=1.0 / qcomp=0.50 / qpmin=6 / qpmax=51 / qpstep=4 / cplxblur=20.0 / qblur=0.5 / vbv_maxrate=7500 / vbv_bufsize=10000 / nal_hrd=vbr / filler=0 / ip_ratio=1.40 / aq=1:1.00
    Default                     : Yes
    Forced                      : No

    Audio #1
    ID                          : 2
    Format                      : AC-3
    Format/Info                 : Audio Coding 3
    Commercial name             : Dolby Digital
    Codec ID                    : A_AC3
    Duration                    : 1 h 32 min
    Bit rate mode               : Constant
    Bit rate                    : 384 kb/s
    Channel(s)                  : 6 channels
    Channel layout              : L R C LFE Ls Rs
    Sampling rate               : 48.0 kHz
    Frame rate                  : 31.250 FPS (1536 SPF)
    Compression mode            : Lossy
    Stream size                 : 254 MiB (7%)
    Title                       : Español Latino [CinemaniaHDD]
    Language                    : Spanish
    Service kind                : Complete Main
    Default                     : Yes
    Forced                      : No

    Audio #2
    ID                          : 3
    Format                      : AC-3
    Format/Info                 : Audio Coding 3
    Commercial name             : Dolby Digital
    Codec ID                    : A_AC3
    Duration                    : 1 h 32 min
    Bit rate mode               : Constant
    Bit rate                    : 384 kb/s
    Channel(s)                  : 6 channels
    Channel layout              : L R C LFE Ls Rs
    Sampling rate               : 48.0 kHz
    Frame rate                  : 31.250 FPS (1536 SPF)
    Compression mode            : Lossy
    Stream size                 : 254 MiB (7%)
    Title                       : Ingles [CinemaniaHDD]
    Language                    : English
    Service kind                : Complete Main
    Default                     : No
    Forced                      : No

    Text #1
    ID                          : 4
    Format                      : UTF-8
    Codec ID                    : S_TEXT/UTF8
    Codec ID/Info               : UTF-8 Plain Text
    Duration                    : 1 h 21 min
    Bit rate                    : 16 b/s
    Count of elements           : 279
    Stream size                 : 9.78 KiB (0%)
    Title                       : Forzados-SRT [CinemaniaHDD]
    Language                    : Spanish
    Default                     : Yes
    Forced                      : Yes

    Text #2
    ID                          : 5
    Format                      : UTF-8
    Codec ID                    : S_TEXT/UTF8
    Codec ID/Info               : UTF-8 Plain Text
    Duration                    : 1 h 23 min
    Bit rate                    : 72 b/s
    Count of elements           : 816
    Stream size                 : 44.5 KiB (0%)
    Title                       : Español-SRT [CinemaniaHDD]
    Language                    : Spanish
    Default                     : No
    Forced                      : No

    Text #3
    ID                          : 6
    Format                      : UTF-8
    Codec ID                    : S_TEXT/UTF8
    Codec ID/Info               : UTF-8 Plain Text
    Duration                    : 1 h 31 min
    Bit rate                    : 82 b/s
    Count of elements           : 1369
    Stream size                 : 55.0 KiB (0%)
    Title                       : Ingles-SRT [CinemaniaHDD]
    Language                    : English
    Default                     : No
    Forced                      : No

  • Peso: 3.46 GiB

Sinopsis

Descargar Marcados al nacer (2023) NF WEB-DL 1080p Latino. Las raíces y evolución de los conceptos racistas en Estados Unidos para comprender la sociedad actual.

Ficha técnica

Video trailer de la película

Enlaces de descarga

Rip de Bluray

Descargar Marcados al nacer (2023) NF WEB-DL 1080p Latino




Aportes de DPeliculasHDmega la pass es:dpeliculashdmega.org Aportes de CinemaniaHD la pass es:cinemaniahdd.com Aportes recientes:cinemaniahdd.net
Guardado en : Documental , Netflix

Películas relacionadas

  • La gran exclusiva (2024) NF WEB-DL 1080p Latino

    La gran exclusiva (2024) NF WEB-DL 1080p Latino

    2024
    La gran exclusiva (2024) NF WEB-DL 1080p Latino

    1h 43m 2024

    Descargar La gran exclusiva (2024) NF WEB-DL 1080p Latino. Esta dramatización ficticia basada en hechos...

    Director: Philip Martin

    Género: Drama

    Actores: Theresa Godly

  • RIPLEY (2024) Temporada 1 NF WEB-DL 1080p Latino

    RIPLEY (2024) Temporada 1 NF WEB-DL 1080p Latino

    2024
    RIPLEY (2024) Temporada 1 NF WEB-DL 1080p Latino

    0h 0m 2024

    Descargar RIPLEY (2024) Temporada 1 NF WEB-DL 1080p Latino. Un estafador se adentra en un mundo de riqueza...

    Director: Steven Zaillian

    Género: Drama

    Actores: Johnny Flynn

  • Maleantes (2024)  Temporada 1 NF WEB-DL 1080p Latino

    Maleantes (2024) Temporada 1 NF WEB-DL 1080p Latino

    2024
    Maleantes (2024) Temporada 1 NF WEB-DL 1080p Latino

    0h 0m 2024

    Descargar Maleantes (2024) Temporada 1 NF WEB-DL 1080p Latino. Cuando bandas rivales de Europa se enfrentan...

    Director: Marvin Kren

    Género: Action & Adventure

    Actores: Svenja Jung

  • Fabricante de lágrimas (2024) NF WEB-DL 1080p Latino

    Fabricante de lágrimas (2024) NF WEB-DL 1080p Latino

    2024
    Fabricante de lágrimas (2024) NF WEB-DL 1080p Latino

    1h 43m 2024

    Descargar Fabricante de lágrimas (2024) NF WEB-DL 1080p Latino. Adoptados juntos tras pasar una infancia...

    Director: Alessandro Genovesi

    Género: Drama

    Actores: Sveva Romano Candelletta

descargar Marcados al nacer (2023) NF WEB-DL 1080p Latino WEBDL 1080p gratis, Marcados al nacer (2023) NF WEB-DL 1080p Latino WEBDL mega 1 link, Marcados al nacer (2023) NF WEB-DL 1080p Latino WEBDL pelicula completa, descargar Marcados al nacer (2023) NF WEB-DL 1080p Latino WEBDL gratis en mega.

Marcados al nacer (2023) NF WEB-DL 1080p Latino pelicula full hd, Marcados al nacer (2023) NF WEB-DL 1080p Latino mega latino, Marcados al nacer (2023) NF WEB-DL 1080p Latino 4k latino, Marcados al nacer (2023) NF WEB-DL 1080p Latino pelicula completa, Marcados al nacer (2023) NF WEB-DL 1080p Latino descargar gratis, descargar Marcados al nacer (2023) NF WEB-DL 1080p Latino pelicula latino, Marcados al nacer (2023) NF WEB-DL 1080p Latino 1 link mega, Marcados al nacer (2023) NF WEB-DL 1080p Latino 1 link google drive, Marcados al nacer (2023) NF WEB-DL 1080p Latino hd 1080p latino.
Comentarios 0