×

¿Problemas para descargar con Mozilla, EDGE? Deshabilita la opción "Abrir vinculos en una pestaña nueva" tal como lo muestra ésta imagen.

Marathon Man (1976) REMUX 1080p Latino – CMHDD

114 vistas

Información de Marathon Man (1976) REMUX 1080p Latino – CMHDD

Datos de la película

  • Calidad: Full 1080p
  • Audio: Español Latino AC3 2.0 BLURAY - Ingles DTS 5.1 BLURAY
  • Subtitulos: Español Latino PGS
  • Resolución: 1920x1080p
  • Formato: MKV
  • Codec: H.264
  • Encoder: Dracarys
  • Mediainfo: Clic para Mostrar Datos Ver
  • Format                      : Matroska
    Format version              : Version 4
    File size                   : 34.8 GiB
    Duration                    : 2 h 5 min
    Overall bit rate mode       : Variable
    Overall bit rate            : 39.8 Mb/s
    Movie name                  : Marathon Man (1976) REMUX 1080p Latino - CMHDD
    Encoded date                : UTC 2021-07-12 17:18:09
    Writing application         : mkvmerge v56.1.0 ('My Friend') 64-bit
    Writing library             : libebml v1.4.2 + libmatroska v1.6.4
    Cover                       : Yes
    Attachments                 : cover.jpg

    Video
    ID                          : 1
    ID in the original source m : 4113 (0x1011)
    Format                      : AVC
    Format/Info                 : Advanced Video Codec
    Format profile              : High@L4.1
    Format settings             : CABAC / 4 Ref Frames
    Format settings, CABAC      : Yes
    Format settings, Reference  : 4 frames
    Codec ID                    : V_MPEG4/ISO/AVC
    Duration                    : 2 h 5 min
    Bit rate mode               : Variable
    Bit rate                    : 36.8 Mb/s
    Maximum bit rate            : 38.0 Mb/s
    Width                       : 1 920 pixels
    Height                      : 1 080 pixels
    Display aspect ratio        : 16:9
    Frame rate mode             : Constant
    Frame rate                  : 23.976 (24000/1001) FPS
    Color space                 : YUV
    Chroma subsampling          : 4:2:0
    Bit depth                   : 8 bits
    Scan type                   : Progressive
    Bits/(Pixel*Frame)          : 0.741
    Stream size                 : 32.3 GiB (93%)
    Default                     : Yes
    Forced                      : No
    Original source medium      : Blu-ray

    Audio #1
    ID                          : 2
    ID in the original source m : 4352 (0x1100)
    Format                      : DTS XLL
    Format/Info                 : Digital Theater Systems
    Commercial name             : DTS-HD Master Audio
    Codec ID                    : A_DTS
    Duration                    : 2 h 5 min
    Bit rate mode               : Variable
    Bit rate                    : 2 725 kb/s
    Channel(s)                  : 6 channels
    Channel layout              : C L R Ls Rs LFE
    Sampling rate               : 48.0 kHz
    Frame rate                  : 93.750 FPS (512 SPF)
    Bit depth                   : 24 bits
    Compression mode            : Lossless
    Stream size                 : 2.39 GiB (7%)
    Language                    : English
    Default                     : No
    Forced                      : No
    Original source medium      : Blu-ray

    Audio #2
    ID                          : 3
    ID in the original source m : 4355 (0x1103)
    Format                      : AC-3
    Format/Info                 : Audio Coding 3
    Commercial name             : Dolby Digital
    Codec ID                    : A_AC3
    Duration                    : 2 h 5 min
    Bit rate mode               : Constant
    Bit rate                    : 224 kb/s
    Channel(s)                  : 2 channels
    Channel layout              : L R
    Sampling rate               : 48.0 kHz
    Frame rate                  : 31.250 FPS (1536 SPF)
    Compression mode            : Lossy
    Stream size                 : 201 MiB (1%)
    Language                    : Spanish
    Service kind                : Complete Main
    Default                     : Yes
    Forced                      : No
    Original source medium      : Blu-ray

    Text
    ID                          : 4
    ID in the original source m : 4612 (0x1204)
    Format                      : PGS
    Muxing mode                 : zlib
    Codec ID                    : S_HDMV/PGS
    Codec ID/Info               : Picture based subtitle format used on BDs/HD-DVDs
    Duration                    : 2 h 4 min
    Bit rate                    : 20.5 kb/s
    Count of elements           : 1764
    Stream size                 : 18.2 MiB (0%)
    Language                    : Spanish
    Default                     : No
    Forced                      : No
    Original source medium      : Blu-ray

    Menu
    00:00:00.000                : Chapter 01
    00:01:12.822                : Chapter 02
    00:03:24.954                : Chapter 03
    00:06:26.427                : Chapter 04
    00:08:38.809                : Chapter 05
    00:10:44.477                : Chapter 06
    00:12:10.187                : Chapter 07
    00:14:27.867                : Chapter 08
    00:17:26.795                : Chapter 09
    00:18:23.560                : Chapter 10
    00:20:27.809                : Chapter 11
    00:23:08.136                : Chapter 12
    00:24:39.352                : Chapter 13
    00:26:30.380                : Chapter 14
    00:28:43.888                : Chapter 15
    00:31:42.901                : Chapter 16
    00:33:24.043                : Chapter 17
    00:35:09.107                : Chapter 18
    00:37:36.128                : Chapter 19
    00:40:37.560                : Chapter 20
    00:41:23.481                : Chapter 21
    00:42:52.987                : Chapter 22
    00:44:01.180                : Chapter 23
    00:45:02.157                : Chapter 24
    00:46:52.142                : Chapter 25
    00:52:27.936                : Chapter 26
    00:55:53.099                : Chapter 27
    00:59:19.639                : Chapter 28
    01:00:52.357                : Chapter 29
    01:01:48.913                : Chapter 30
    01:07:05.271                : Chapter 31
    01:08:57.800                : Chapter 32
    01:11:40.838                : Chapter 33
    01:16:02.849                : Chapter 34
    01:20:18.188                : Chapter 35
    01:23:40.557                : Chapter 36
    01:24:51.586                : Chapter 37
    01:29:33.326                : Chapter 38
    01:31:16.220                : Chapter 39
    01:33:53.794                : Chapter 40
    01:34:57.066                : Chapter 41
    01:39:06.315                : Chapter 42
    01:42:43.157                : Chapter 43
    01:45:12.848                : Chapter 44
    01:48:30.462                : Chapter 45
    01:51:27.472                : Chapter 46
    01:53:30.303                : Chapter 47
    01:54:42.000                : Chapter 48
    01:56:37.532                : Chapter 49
    02:02:34.555                : Chapter 50

  • Peso: 34.8 GiB

Sinopsis

En Nueva York, Babe Levy, un universitario que está haciendo el doctorado en la Universidad de Columbia y que pasa parte de su tiempo libre preparándose para correr maratones, conoce a Elsa, una extraña mujer suiza con la que inicia una relación amorosa.

Ficha técnica

Video trailer de la película

Enlaces de descarga

Rip de Bluray

Descargar Marathon Man (1976) REMUX 1080p Latino – CMHDD


Aportes de DPeliculasHDmega la pass es:dpeliculashdmega.org Aportes de CinemaniaHD la pass es:cinemaniahdd.com
Guardado en : Drama , Suspenso

Películas relacionadas

descargar Marathon Man (1976) REMUX 1080p Latino – CMHDD Full 1080p 1080p gratis, Marathon Man (1976) REMUX 1080p Latino – CMHDD Full 1080p mega 1 link, Marathon Man (1976) REMUX 1080p Latino – CMHDD Full 1080p pelicula completa, descargar Marathon Man (1976) REMUX 1080p Latino – CMHDD Full 1080p gratis en mega.

Marathon Man (1976) REMUX 1080p Latino – CMHDD pelicula full hd, Marathon Man (1976) REMUX 1080p Latino – CMHDD mega latino, Marathon Man (1976) REMUX 1080p Latino – CMHDD 4k latino, Marathon Man (1976) REMUX 1080p Latino – CMHDD pelicula completa, Marathon Man (1976) REMUX 1080p Latino – CMHDD descargar gratis, descargar Marathon Man (1976) REMUX 1080p Latino – CMHDD pelicula latino, Marathon Man (1976) REMUX 1080p Latino – CMHDD 1 link mega, Marathon Man (1976) REMUX 1080p Latino – CMHDD 1 link google drive, Marathon Man (1976) REMUX 1080p Latino – CMHDD hd 1080p latino.