×

¿Problemas para descargar con Mozilla, EDGE? Deshabilita la opción "Abrir vinculos en una pestaña nueva" tal como lo muestra ésta imagen.

Marathon Man (1976) Full HD 1080p Latino – CMHDD

136 vistas

Información de Marathon Man (1976) Full HD 1080p Latino – CMHDD

Datos de la película

  • Calidad: Full 1080p
  • Audio: Español Latino AC3 2.0 BLURAY - Ingles DTS 5.1 BLURAY
  • Subtitulos: Español Latino PGS
  • Resolución: 1920x1080p
  • Formato: MKV
  • Codec: H.264
  • Encoder: Dracarys
  • Mediainfo: Clic para Mostrar Datos Ver
  • Format                      : Matroska
    Format version              : Version 4
    File size                   : 10.7 GiB
    Duration                    : 2 h 5 min
    Overall bit rate mode       : Variable
    Overall bit rate            : 12.3 Mb/s
    Movie name                  : Marathon Man (1976) Full HD 1080p Latino - CMHDD
    Encoded date                : UTC 2021-07-18 21:39:45
    Writing application         : mkvmerge v56.1.0 ('My Friend') 64-bit
    Writing library             : libebml v1.4.2 + libmatroska v1.6.4

    Video
    ID                          : 1
    Format                      : AVC
    Format/Info                 : Advanced Video Codec
    Format profile              : High@L4.1
    Format settings             : CABAC / 4 Ref Frames
    Format settings, CABAC      : Yes
    Format settings, Reference  : 4 frames
    Codec ID                    : V_MPEG4/ISO/AVC
    Duration                    : 2 h 5 min
    Bit rate                    : 9 292 kb/s
    Width                       : 1 920 pixels
    Height                      : 1 080 pixels
    Display aspect ratio        : 16:9
    Frame rate mode             : Constant
    Frame rate                  : 23.976 (24000/1001) FPS
    Color space                 : YUV
    Chroma subsampling          : 4:2:0
    Bit depth                   : 8 bits
    Scan type                   : Progressive
    Bits/(Pixel*Frame)          : 0.187
    Stream size                 : 8.14 GiB (76%)
    Writing library             : x264 core 157 r2935 545de2f
    Encoding settings           : cabac=1 / ref=4 / deblock=1:0:0 / analyse=0x3:0x133 / me=tesa / subme=11 / psy=1 / psy_rd=1.00:0.00 / mixed_ref=1 / me_range=24 / chroma_me=1 / trellis=2 / 8x8dct=1 / cqm=0 / deadzone=21,11 / fast_pskip=0 / chroma_qp_offset=-2 / threads=24 / lookahead_threads=6 / sliced_threads=0 / nr=0 / decimate=1 / interlaced=0 / bluray_compat=0 / constrained_intra=0 / bframes=16 / b_pyramid=2 / b_adapt=2 / b_bias=0 / direct=3 / weightb=1 / open_gop=0 / weightp=2 / keyint=240 / keyint_min=24 / scenecut=40 / intra_refresh=0 / rc_lookahead=60 / rc=crf / mbtree=1 / crf=20.0 / qcomp=0.60 / qpmin=0 / qpmax=69 / qpstep=4 / vbv_maxrate=62500 / vbv_bufsize=78125 / crf_max=0.0 / nal_hrd=none / filler=0 / ip_ratio=1.40 / aq=1:1.00
    Default                     : Yes
    Forced                      : No
    Color range                 : Limited
    Color primaries             : BT.709
    Transfer characteristics    : BT.709
    Matrix coefficients         : BT.709

    Audio #1
    ID                          : 2
    Format                      : AC-3
    Format/Info                 : Audio Coding 3
    Commercial name             : Dolby Digital
    Codec ID                    : A_AC3
    Duration                    : 2 h 5 min
    Bit rate mode               : Constant
    Bit rate                    : 224 kb/s
    Channel(s)                  : 2 channels
    Channel layout              : L R
    Sampling rate               : 48.0 kHz
    Frame rate                  : 31.250 FPS (1536 SPF)
    Compression mode            : Lossy
    Stream size                 : 201 MiB (2%)
    Language                    : Spanish
    Service kind                : Complete Main
    Default                     : Yes
    Forced                      : No

    Audio #2
    ID                          : 3
    Format                      : DTS XLL
    Format/Info                 : Digital Theater Systems
    Commercial name             : DTS-HD Master Audio
    Codec ID                    : A_DTS
    Duration                    : 2 h 5 min
    Bit rate mode               : Variable
    Bit rate                    : 2 725 kb/s
    Channel(s)                  : 6 channels
    Channel layout              : C L R Ls Rs LFE
    Sampling rate               : 48.0 kHz
    Frame rate                  : 93.750 FPS (512 SPF)
    Bit depth                   : 24 bits
    Compression mode            : Lossless
    Stream size                 : 2.39 GiB (22%)
    Language                    : English
    Default                     : No
    Forced                      : No

    Text
    ID                          : 4
    Format                      : PGS
    Muxing mode                 : zlib
    Codec ID                    : S_HDMV/PGS
    Codec ID/Info               : Picture based subtitle format used on BDs/HD-DVDs
    Duration                    : 2 h 4 min
    Bit rate                    : 20.5 kb/s
    Count of elements           : 1764
    Stream size                 : 18.2 MiB (0%)
    Language                    : Spanish
    Default                     : No
    Forced                      : No

    Menu
    00:00:00.000                : :Chapter 1
    00:01:12.823                : :Chapter 2
    00:03:24.955                : :Chapter 3
    00:06:26.428                : :Chapter 4
    00:08:38.810                : :Chapter 5
    00:10:44.561                : :Chapter 6
    00:12:10.188                : :Chapter 7
    00:14:27.867                : :Chapter 8
    00:17:26.796                : :Chapter 9
    00:18:23.561                : :Chapter 10
    00:20:27.810                : :Chapter 11
    00:23:08.137                : :Chapter 12
    00:24:39.353                : :Chapter 13
    00:26:30.506                : :Chapter 14
    00:28:43.889                : :Chapter 15
    00:31:42.901                : :Chapter 16
    00:33:24.044                : :Chapter 17
    00:35:09.107                : :Chapter 18
    00:37:36.129                : :Chapter 19
    00:40:37.685                : :Chapter 20
    00:41:23.481                : :Chapter 21
    00:42:53.112                : :Chapter 22
    00:44:01.305                : :Chapter 23
    00:45:02.158                : :Chapter 24
    00:46:52.143                : :Chapter 25
    00:52:28.062                : :Chapter 26
    00:55:53.100                : :Chapter 27
    00:59:19.765                : :Chapter 28
    01:00:52.440                : :Chapter 29
    01:01:48.914                : :Chapter 30
    01:07:05.396                : :Chapter 31
    01:08:57.925                : :Chapter 32
    01:11:40.963                : :Chapter 33
    01:16:02.850                : :Chapter 34
    01:20:18.314                : :Chapter 35
    01:23:40.641                : :Chapter 36
    01:24:51.587                : :Chapter 37
    01:29:33.410                : :Chapter 38
    01:31:16.221                : :Chapter 39
    01:33:53.795                : :Chapter 40
    01:34:57.150                : :Chapter 41
    01:39:06.441                : :Chapter 42
    01:42:43.157                : :Chapter 43
    01:45:12.973                : :Chapter 44
    01:48:30.587                : :Chapter 45
    01:51:27.598                : :Chapter 46
    01:53:30.304                : :Chapter 47
    01:54:42.125                : :Chapter 48
    01:56:37.657                : :Chapter 49
    02:02:34.556                : :Chapter 50

  • Peso: 10.7 GiB

Sinopsis

En Nueva York, Babe Levy, un universitario que está haciendo el doctorado en la Universidad de Columbia y que pasa parte de su tiempo libre preparándose para correr maratones, conoce a Elsa, una extraña mujer suiza con la que inicia una relación amorosa.

Ficha técnica

Video trailer de la película

Enlaces de descarga

Rip de Bluray

Descargar Marathon Man (1976) Full HD 1080p Latino – CMHDD




Aportes de DPeliculasHDmega la pass es:dpeliculashdmega.org Aportes de CinemaniaHD la pass es:cinemaniahdd.com
Guardado en : Drama , Suspenso

Películas relacionadas

descargar Marathon Man (1976) Full HD 1080p Latino – CMHDD Full 1080p 1080p gratis, Marathon Man (1976) Full HD 1080p Latino – CMHDD Full 1080p mega 1 link, Marathon Man (1976) Full HD 1080p Latino – CMHDD Full 1080p pelicula completa, descargar Marathon Man (1976) Full HD 1080p Latino – CMHDD Full 1080p gratis en mega.

Marathon Man (1976) Full HD 1080p Latino – CMHDD pelicula full hd, Marathon Man (1976) Full HD 1080p Latino – CMHDD mega latino, Marathon Man (1976) Full HD 1080p Latino – CMHDD 4k latino, Marathon Man (1976) Full HD 1080p Latino – CMHDD pelicula completa, Marathon Man (1976) Full HD 1080p Latino – CMHDD descargar gratis, descargar Marathon Man (1976) Full HD 1080p Latino – CMHDD pelicula latino, Marathon Man (1976) Full HD 1080p Latino – CMHDD 1 link mega, Marathon Man (1976) Full HD 1080p Latino – CMHDD 1 link google drive, Marathon Man (1976) Full HD 1080p Latino – CMHDD hd 1080p latino.
Comentarios 0