×

¿Problemas para descargar con Mozilla, EDGE? Deshabilita la opción "Abrir vinculos en una pestaña nueva" tal como lo muestra ésta imagen.

Mar de sangre (2022) WEB-DL 1080p Latino

17 vistas

Información de Mar de sangre (2022) WEB-DL 1080p Latino

Datos de la película

  • Calidad: WEBDL
  • Audio: Español Latino AC3 5.1 WEB-DL - Ingles AC3 5.1 WEB-DL
  • Subtitulos: Español Latino SRT- FORZADOS SRT
  • Resolución: 1912x796p
  • Formato: MKV
  • Codec: H.264
  • Encoder: Melkor
  • Mediainfo: Clic para Mostrar Datos Ver
  • Mar de Sangre (2022) WebDL 1080p Latino.mkv Format                      : Matroska Format version              : Version 4 File size                   : 6.43 GiB Duration                    : 1 h 24 min Overall bit rate            : 10.8 Mb/s Movie name                  : Shark Bait (2022) CinemaniaHDD.Net Encoded date                : UTC 2023-01-24 07:06:48 Writing application         : mkvmerge v56.1.0 ('My Friend') 64-bit Writing library             : libebml v1.4.2 + libmatroska v1.6.4 Video ID                          : 1 Format                      : AVC Format/Info                 : Advanced Video Codec Format profile              : High@L4 Format settings             : CABAC / 5 Ref Frames Format settings, CABAC      : Yes Format settings, Reference  : 5 frames Codec ID                    : V_MPEG4/ISO/AVC Duration                    : 1 h 24 min Bit rate                    : 9 997 kb/s Width                       : 1 912 pixels Height                      : 796 pixels Display aspect ratio        : 2.40:1 Frame rate mode             : Constant Frame rate                  : 23.976 (24000/1001) FPS Color space                 : YUV Chroma subsampling          : 4:2:0 Bit depth                   : 8 bits Scan type                   : Progressive Bits/(Pixel*Frame)          : 0.274 Stream size                 : 5.93 GiB (92%) Title                       : Web HD1080p [CinemaniaHDD] Language                    : English Default                     : Yes Forced                      : Yes Color range                 : Limited Color primaries             : BT.709 Transfer characteristics    : BT.709 Matrix coefficients         : BT.709 Audio #1 ID                          : 2 Format                      : AC-3 Format/Info                 : Audio Coding 3 Commercial name             : Dolby Digital Codec ID                    : A_AC3 Duration                    : 1 h 24 min Bit rate mode               : Constant Bit rate                    : 448 kb/s Channel(s)                  : 6 channels Channel layout              : L R C LFE Ls Rs Sampling rate               : 48.0 kHz Frame rate                  : 31.250 FPS (1536 SPF) Compression mode            : Lossy Stream size                 : 272 MiB (4%) Title                       : Español Latino [CinemaniaHDD] Language                    : Spanish Service kind                : Complete Main Default                     : Yes Forced                      : Yes Audio #2 ID                          : 3 Format                      : AC-3 Format/Info                 : Audio Coding 3 Commercial name             : Dolby Digital Codec ID                    : A_AC3 Duration                    : 1 h 24 min Bit rate mode               : Constant Bit rate                    : 384 kb/s Channel(s)                  : 6 channels Channel layout              : L R C LFE Ls Rs Sampling rate               : 48.0 kHz Frame rate                  : 31.250 FPS (1536 SPF) Compression mode            : Lossy Stream size                 : 233 MiB (4%) Title                       : Ingles [CinemaniaHDD] Language                    : English Service kind                : Complete Main Default                     : No Forced                      : No Text #1 ID                          : 4 Format                      : UTF-8 Codec ID                    : S_TEXT/UTF8 Codec ID/Info               : UTF-8 Plain Text Duration                    : 3 s 0 ms Bit rate                    : 42 b/s Count of elements           : 1 Stream size                 : 16.0 Bytes (0%) Title                       : Forzados-SRT [CinemaniaHDD] Language                    : Spanish Default                     : Yes Forced                      : Yes Text #2 ID                          : 5 Format                      : UTF-8 Codec ID                    : S_TEXT/UTF8 Codec ID/Info               : UTF-8 Plain Text Duration                    : 1 h 14 min Bit rate                    : 32 b/s Count of elements           : 666 Stream size                 : 17.6 KiB (0%) Title                       : Español-SRT [CinemaniaHDD] Language                    : Spanish Default                     : No Forced                      : No Text #3 ID                          : 6 Format                      : UTF-8 Codec ID                    : S_TEXT/UTF8 Codec ID/Info               : UTF-8 Plain Text Duration                    : 1 h 18 min Bit rate                    : 27 b/s Count of elements           : 687 Stream size                 : 15.9 KiB (0%) Title                       : Ingles-SRT [CinemaniaHDD] Language                    : English Default                     : No Forced                      : No
  • Peso: 6.43 GiB

Sinopsis

Descargar Mar de sangre (2022) WEB-DL 1080p Latino. Un grupo de amigos que disfrutan de un fin de semana roban un par de motos acuáticas que los llevan al mar y terminan en una horrible colisión frontal. Luchan por encontrar el camino a casa con un amigo gravemente herido mientras los depredadores acechan en las aguas debajo.

Ficha técnica

Video trailer de la película

Enlaces de descarga

Rip de Bluray

Descargar Mar de sangre (2022) WEB-DL 1080p Latino




Aportes de DPeliculasHDmega la pass es:dpeliculashdmega.org Aportes de CinemaniaHD la pass es:cinemaniahdd.com
Guardado en : Acción , Aventura , Suspenso , Terror

Películas relacionadas

descargar Mar de sangre (2022) WEB-DL 1080p Latino WEBDL 1080p gratis, Mar de sangre (2022) WEB-DL 1080p Latino WEBDL mega 1 link, Mar de sangre (2022) WEB-DL 1080p Latino WEBDL pelicula completa, descargar Mar de sangre (2022) WEB-DL 1080p Latino WEBDL gratis en mega.

Mar de sangre (2022) WEB-DL 1080p Latino pelicula full hd, Mar de sangre (2022) WEB-DL 1080p Latino mega latino, Mar de sangre (2022) WEB-DL 1080p Latino 4k latino, Mar de sangre (2022) WEB-DL 1080p Latino pelicula completa, Mar de sangre (2022) WEB-DL 1080p Latino descargar gratis, descargar Mar de sangre (2022) WEB-DL 1080p Latino pelicula latino, Mar de sangre (2022) WEB-DL 1080p Latino 1 link mega, Mar de sangre (2022) WEB-DL 1080p Latino 1 link google drive, Mar de sangre (2022) WEB-DL 1080p Latino hd 1080p latino.
Comentarios 0