Maquinas Mortales (2018) Full 1080p Latino

2.482 vistas
1 estrella2 estrellas3 estrellas4 estrellas5 estrellas (9 votos, promedio: 5,00 de 5)
Cargando…

Información de Maquinas Mortales (2018) Full 1080p Latino

Datos de la película

  • Calidad: Full 1080p
  • Audio: Se especifica abajo de la Sinopsis
  • Subtitulos: Español Latino PGS - Ingles PGS
  • Resolución: 1920x1080p
  • Formato: MKV
  • Codec: H.264
  • Encoder: CinefiloCool
  • Mediainfo: Clic para Mostrar Datos Ver
  • Maquinas Mortales (2018) Full 1080p Latino PLACEBO.mkv
    Format                      : Matroska
    Format version              : Version 4
    File size                   : 5.17 GiB
    Duration                    : 2 h 8 min
    Overall bit rate            : 5 765 kb/s
    Movie name                  : CinemaniaHDD.Net
    Encoded date                : UTC 2019-03-08 14:46:31
    Writing application         : mkvmerge v30.1.0 ('Forever And More') 64-bit
    Writing library             : libebml v1.3.6 + libmatroska v1.4.9 / Lavf58.20.100

    Video
    ID                          : 1
    Format                      : AVC
    Format/Info                 : Advanced Video Codec
    Format profile              : [email protected]
    Format settings             : CABAC / 4 Ref Frames
    Format settings, CABAC      : Yes
    Format settings, ReFrames   : 4 frames
    Codec ID                    : V_MPEG4/ISO/AVC
    Duration                    : 2 h 8 min
    Bit rate                    : 3 468 kb/s
    Width                       : 1 920 pixels
    Height                      : 1 080 pixels
    Display aspect ratio        : 16:9
    Frame rate mode             : Constant
    Frame rate                  : 23.976 (24000/1001) FPS
    Color space                 : YUV
    Chroma subsampling          : 4:2:0
    Bit depth                   : 8 bits
    Scan type                   : Progressive
    Bits/(Pixel*Frame)          : 0.070
    Stream size                 : 3.11 GiB (60%)
    Title                       : Full HD1080p (Bluray)
    Writing library             : x264 core 157 r2935 545de2f
    Encoding settings           : cabac=1 / ref=4 / deblock=1:0:0 / analyse=0x3:0x133 / me=tesa / subme=11 / psy=1 / psy_rd=1.00:0.00 / mixed_ref=1 / me_range=24 / chroma_me=1 / trellis=2 / 8x8dct=1 / cqm=0 / deadzone=21,11 / fast_pskip=0 / chroma_qp_offset=-2 / threads=34 / lookahead_threads=8 / sliced_threads=0 / nr=0 / decimate=1 / interlaced=0 / bluray_compat=0 / constrained_intra=0 / bframes=16 / b_pyramid=2 / b_adapt=2 / b_bias=0 / direct=3 / weightb=1 / open_gop=0 / weightp=2 / keyint=240 / keyint_min=24 / scenecut=40 / intra_refresh=0 / rc_lookahead=60 / rc=crf / mbtree=1 / crf=20.0 / qcomp=0.60 / qpmin=0 / qpmax=69 / qpstep=4 / vbv_maxrate=62500 / vbv_bufsize=78125 / crf_max=0.0 / nal_hrd=none / filler=0 / ip_ratio=1.40 / aq=1:1.00
    Default                     : Yes
    Forced                      : No
    Color range                 : Limited
    Color primaries             : BT.709
    Transfer characteristics    : BT.709
    Matrix coefficients         : BT.709

    Audio #1
    ID                          : 2
    Format                      : E-AC-3
    Format/Info                 : Enhanced AC-3
    Commercial name             : Dolby Digital Plus
    Format profile              : Blu-ray Disc
    Codec ID                    : A_EAC3
    Duration                    : 2 h 8 min
    Bit rate mode               : Constant
    Bit rate                    : 768 kb/s
    Channel(s)                  : 8 channels
    Channel layout              : L R C LFE Ls Rs Lb Rb
    Sampling rate               : 48.0 kHz
    Frame rate                  : 31.250 FPS (1536 SPF)
    Compression mode            : Lossy
    Stream size                 : 705 MiB (13%)
    Title                       : DDP_7.1_Bluray_Esp
    Language                    : Spanish
    Service kind                : Complete Main
    Default                     : Yes
    Forced                      : Yes

    Audio #2
    ID                          : 3
    Format                      : DTS
    Format/Info                 : Digital Theater Systems
    Codec ID                    : A_DTS
    Duration                    : 2 h 8 min
    Bit rate mode               : Constant
    Bit rate                    : 1 509 kb/s
    Channel(s)                  : 6 channels
    Channel layout              : C L R Ls Rs LFE
    Sampling rate               : 48.0 kHz
    Frame rate                  : 93.750 FPS (512 SPF)
    Bit depth                   : 24 bits
    Compression mode            : Lossy
    Stream size                 : 1.35 GiB (26%)
    Title                       : DTS_Bluray_5.1_Eng
    Language                    : English
    Default                     : No
    Forced                      : No

    Text #1
    ID                          : 4
    Format                      : PGS
    Muxing mode                 : zlib
    Codec ID                    : S_HDMV/PGS
    Codec ID/Info               : Picture based subtitle format used on BDs/HD-DVDs
    Duration                    : 2 h 2 min
    Bit rate                    : 549 b/s
    Count of elements           : 44
    Stream size                 : 491 KiB (0%)
    Title                       : Sub_Forzados (PGS)
    Language                    : Spanish
    Default                     : Yes
    Forced                      : Yes

    Text #2
    ID                          : 5
    Format                      : PGS
    Muxing mode                 : zlib
    Codec ID                    : S_HDMV/PGS
    Codec ID/Info               : Picture based subtitle format used on BDs/HD-DVDs
    Duration                    : 2 h 7 min
    Bit rate                    : 23.3 kb/s
    Count of elements           : 2486
    Stream size                 : 21.3 MiB (0%)
    Title                       : Sub_Esp (PGS)
    Language                    : Spanish
    Default                     : No
    Forced                      : No

    Text #3
    ID                          : 6
    Format                      : PGS
    Muxing mode                 : zlib
    Codec ID                    : S_HDMV/PGS
    Codec ID/Info               : Picture based subtitle format used on BDs/HD-DVDs
    Duration                    : 1 h 57 min
    Bit rate                    : 32.9 kb/s
    Count of elements           : 2986
    Stream size                 : 27.7 MiB (1%)
    Title                       : Sub_Eng (PGS)
    Language                    : English
    Default                     : No
    Forced                      : No

    Menu
    00:00:00.000                : :Chapter 1
    00:09:24.439                : :Chapter 2
    00:16:13.181                : :Chapter 3
    00:24:20.334                : :Chapter 4
    00:31:24.674                : :Chapter 5
    00:35:52.734                : :Chapter 6
    00:41:27.819                : :Chapter 7
    00:44:53.566                : :Chapter 8
    00:50:16.889                : :Chapter 9
    00:54:21.175                : :Chapter 10
    01:00:51.398                : :Chapter 11
    01:07:12.070                : :Chapter 12
    01:11:12.852                : :Chapter 13
    01:17:37.820                : :Chapter 14
    01:25:25.454                : :Chapter 15
    01:33:30.480                : :Chapter 16
    01:39:28.546                : :Chapter 17
    01:47:58.347                : :Chapter 18
    01:52:11.642                : :Chapter 19
    01:58:33.607                : :Chapter 20

  • Peso: 5.17 GiB

Sinopsis

Descargar Maquinas Mortales (2018) Full 1080p Latino, Mega, Google Drive, Torrent. En un futuro distópico, las ciudades son gigantes fortalezas en movimiento por el planeta que luchan entre sí por los escasos recursos que aún quedan. Miles de años después de que la civilización fuera destruida por un evento catastrófico, la humanidad se ha adaptado y evolucionado en una nueva forma de vida. Las gigantescas ciudades en movimiento atacan de manera despiadada a los pueblos más pequeños. Tom Natsworthy y sus compañeros intentarán cambiar el trágico final al que parece que se aboca el planeta.

Audio Español Latino E-AC3 7.1 Bluray – Ingles DTS 5.1 Bluray

Ficha técnica

Video trailer de la película

Enlaces de descarga

Rip de Bluray

Descargar Maquinas Mortales (2018) Full 1080p Latino




Aportes de DPeliculasHDmega la pass es:dpeliculashdmega.org Aportes de CinemaniaHD la pass es:cinemaniahdd.com

Películas relacionadas

  • WiFi Ralph (2018) 4K UHD HDR Latino

    2018
    WiFi Ralph (2018) 4K UHD HDR Latino

    5.0 1h 52m 2018

    Descargar WiFi Ralph (2018) 4K UHD HDR Latino, Mega, Google Drive. Ralph sale de los recreativos y......

    Director: Rich Moore

    Género: 4K HDR

    Actores: Wayne Sermon

  • Bumbeblee (2018) Web-DL 4K HDR 2160p Latino

    2018
    Bumbeblee (2018) Web-DL 4K HDR 2160p Latino

    0.0 1h 54m 2018

    Sexta entrega de la saga 'Transformers', esta vez centrada en el "hermano pequeño" de los Autobots,...

    Director: Travis Knight

    Género: Acción

    Actores: Yianni Apostolopolous

  • The Mule (2018) 1080p Latino

    2018
    The Mule (2018) 1080p Latino

    0.0 1h 56m 2018

    A Earl Stone (Eastwood), un octogenario que está en quiebra, solo, y que se enfrenta a la ejecución...

    Director: Clint Eastwood

    Género: Crimen

    Actores: Victor Rasuk

  • Bumbeblee (2018) Web-DL 4K UHD 2160p Latino

    2018
    Bumbeblee (2018) Web-DL 4K UHD 2160p Latino

    0.0 1h 54m 2018

    Sexta entrega de la saga 'Transformers', esta vez centrada en el "hermano pequeño" de los Autobots,...

    Director: Travis Knight

    Género: Acción

    Actores: Yianni Apostolopolous

  • Aquaman (2018) 3D OU Full HD 1080p Latino

    2018
    Aquaman (2018) 3D OU Full HD 1080p Latino

    5.0 2h 24m 2018

    Un icono durante más de 70 años, Aquaman (Jason Momoa) es el Rey de los Siete Mares. Este reacio gobernante...

    Director: James Wan

    Género: 3D Half OU

    Actores: Yahya Abdul-Mateen II

Comentarios 1
  • Octavio Cesar posadas Martinez - 08 marzo, 2019

    Gracias por maquinas mortales en español latino 7.1 ch, saludos