×

¿Problemas para descargar con Mozilla, EDGE? Deshabilita la opción "Abrir vinculos en una pestaña nueva" tal como lo muestra ésta imagen.

Manuel Turizo Live On Max (2021) HMAX WEB-DL 1080p Latino

129 vistas

Información de Manuel Turizo Live On Max (2021) HMAX WEB-DL 1080p Latino

Datos de la película

  • Calidad: 1080p
  • Audio: Español Latino AC3 2.0
  • Subtitulos: No
  • Resolución: 1920x1080
  • Formato: MKV
  • Codec: H.264
  • Encoder: cinemaniahdd
  • Mediainfo: Clic para Mostrar Datos Ver
  • Manuel Turizo Live On Max (2021) HMAX WEB-DL 1080p Latino [CNMNHDD].mkv
    Format                      : Matroska
    Format version              : Version 4
    File size                   : 4.06 GiB
    Duration                    : 1 h 9 min
    Overall bit rate mode       : Constant
    Overall bit rate            : 8 375 kb/s
    Movie name                  : Manuel Turizo Live On Max (2021) - CinemaniaHDD.Net
    Encoded date                : UTC 2021-11-21 19:00:48
    Writing application         : mkvmerge v56.1.0 ('My Friend') 64-bit
    Writing library             : libebml v1.4.2 + libmatroska v1.6.4

    Video
    ID                          : 1
    Format                      : AVC
    Format/Info                 : Advanced Video Codec
    Format profile              : High@L4
    Format settings             : CABAC / 4 Ref Frames
    Format settings, CABAC      : Yes
    Format settings, Reference  : 4 frames
    Codec ID                    : V_MPEG4/ISO/AVC
    Duration                    : 1 h 9 min
    Bit rate mode               : Constant
    Bit rate                    : 8 000 kb/s
    Width                       : 1 920 pixels
    Height                      : 1 080 pixels
    Display aspect ratio        : 16:9
    Frame rate mode             : Constant
    Frame rate                  : 29.970 (30000/1001) FPS
    Color space                 : YUV
    Chroma subsampling          : 4:2:0
    Bit depth                   : 8 bits
    Scan type                   : Progressive
    Bits/(Pixel*Frame)          : 0.129
    Stream size                 : 3.87 GiB (95%)
    Title                       : CinemaniaHDD
    Language                    : Spanish
    Default                     : Yes
    Forced                      : No

    Audio
    ID                          : 2
    Format                      : AC-3
    Format/Info                 : Audio Coding 3
    Commercial name             : Dolby Digital
    Codec ID                    : A_AC3
    Duration                    : 1 h 9 min
    Bit rate mode               : Constant
    Bit rate                    : 384 kb/s
    Channel(s)                  : 2 channels
    Channel layout              : L R
    Sampling rate               : 48.0 kHz
    Frame rate                  : 31.250 FPS (1536 SPF)
    Compression mode            : Lossy
    Stream size                 : 190 MiB (5%)
    Title                       : Español latino [CinemaniaHDD]
    Language                    : Spanish
    Service kind                : Complete Main
    Default                     : Yes
    Forced                      : No

     

  • Peso: 4.06 GiB

Sinopsis

El escenario de Live on Max le da la bienvenida a la sensación del momento del pop latino y la música urbana, el colombiano Manuel Turizo

Ficha técnica

  • Titulo original: Manuel Turizo Live on Max
  • Fecha de lanzamiento: 20-11-2021
  • Género: HBOMAX, Música

Video trailer de la película

Enlaces de descarga

Rip de Bluray

Descargar Manuel Turizo Live On Max (2021) HMAX WEB-DL 1080p Latino




Aportes de DPeliculasHDmega la pass es:dpeliculashdmega.org Aportes de CinemaniaHD la pass es:cinemaniahdd.com
Guardado en : HBOMAX , Música

Películas relacionadas

  • TÁR (2022) HD 1080p Latino

    TÁR (2022) HD 1080p Latino

    2022
    TÁR (2022) HD 1080p Latino

    2h 38m 2022

    Descargar TÁR (2022) HD 1080p Latino. La mundialmente famosa Lydia Tár está a solo unos días de grabar...

    Director: Todd Field

    Género: Drama

    Actores: Vivian Full

  • TÁR (2022) PLACEBO Full HD 1080p Latino

    TÁR (2022) PLACEBO Full HD 1080p Latino

    2022
    TÁR (2022) PLACEBO Full HD 1080p Latino

    2h 38m 2022

    Descargar TÁR (2022) PLACEBO Full HD 1080p Latino. La mundialmente famosa Lydia Tár está a solo unos...

    Director: Todd Field

    Género: Drama

    Actores: Vivian Full

  • TÁR (2022) REMUX 1080p Latino – CMHDD

    TÁR (2022) REMUX 1080p Latino – CMHDD

    2022
    TÁR (2022) REMUX 1080p Latino – CMHDD

    2h 38m 2022

    Descargar TÁR (2022) REMUX 1080p Latino - CMHDD. La mundialmente famosa Lydia Tár está a solo unos...

    Director: Todd Field

    Género: Drama

    Actores: Vivian Full

  • SLC Punk (1998) REMUX 4K HDR Latino – CMHDD

    SLC Punk (1998) REMUX 4K HDR Latino – CMHDD

    1998
    SLC Punk (1998) REMUX 4K HDR Latino – CMHDD

    1h 37m 1998

    Esta película refleja la vida de un joven punk llamado Stevo, interpretado por Matthew Lillard, de ideología...

    Director: Win Whittaker

    Género: Comedia

    Actores: Vaughn McBride

descargar Manuel Turizo Live On Max (2021) HMAX WEB-DL 1080p Latino 1080p 1080p gratis, Manuel Turizo Live On Max (2021) HMAX WEB-DL 1080p Latino 1080p mega 1 link, Manuel Turizo Live On Max (2021) HMAX WEB-DL 1080p Latino 1080p pelicula completa, descargar Manuel Turizo Live On Max (2021) HMAX WEB-DL 1080p Latino 1080p gratis en mega.

Manuel Turizo Live On Max (2021) HMAX WEB-DL 1080p Latino pelicula full hd, Manuel Turizo Live On Max (2021) HMAX WEB-DL 1080p Latino mega latino, Manuel Turizo Live On Max (2021) HMAX WEB-DL 1080p Latino 4k latino, Manuel Turizo Live On Max (2021) HMAX WEB-DL 1080p Latino pelicula completa, Manuel Turizo Live On Max (2021) HMAX WEB-DL 1080p Latino descargar gratis, descargar Manuel Turizo Live On Max (2021) HMAX WEB-DL 1080p Latino pelicula latino, Manuel Turizo Live On Max (2021) HMAX WEB-DL 1080p Latino 1 link mega, Manuel Turizo Live On Max (2021) HMAX WEB-DL 1080p Latino 1 link google drive, Manuel Turizo Live On Max (2021) HMAX WEB-DL 1080p Latino hd 1080p latino.
Comentarios 0