×

¿Problemas para descargar con Mozilla, EDGE? Deshabilita la opción "Abrir vinculos en una pestaña nueva" tal como lo muestra ésta imagen.

Mansión embrujada (2023) MA WEB-DL 1080p Latino

146 vistas

Información de Mansión embrujada (2023) MA WEB-DL 1080p Latino

Datos de la película

  • Calidad: WEBDL
  • Audio: Español Latino AC3 5.1 WEB-DL - Ingles AC3 5.1 WEB-DL
  • Subtitulos: Español Latino SRT- FORZADOS SRT
  • Resolución: 1920x1080p
  • Formato: MKV
  • Codec: H.264
  • Encoder: Melkor
  • Mediainfo: Clic para Mostrar Datos Ver
  • Mansion Embrujada (2023) MA WebDL 1080p Latino.mkv
    Format                      : Matroska
    Format version              : Version 4
    File size                   : 8.06 GiB
    Duration                    : 2 h 2 min
    Overall bit rate            : 9 384 kb/s
    Movie name                  : Haunted Mansion (2023) CinemaniaHDD.Net
    Encoded date                : UTC 2023-10-05 07:21:38
    Writing application         : mkvmerge v56.1.0 ('My Friend') 64-bit
    Writing library             : libebml v1.4.2 + libmatroska v1.6.4
    Attachments                 : CINEMANIAHD.png
    Site                        : CinemaniaHDD.Net
    Uploader                    : Melkor

    Video
    ID                          : 1
    Format                      : AVC
    Format/Info                 : Advanced Video Codec
    Format profile              : High@L4
    Format settings             : CABAC / 4 Ref Frames
    Format settings, CABAC      : Yes
    Format settings, Reference  : 4 frames
    Codec ID                    : V_MPEG4/ISO/AVC
    Duration                    : 2 h 2 min
    Bit rate                    : 8 000 kb/s
    Width                       : 1 920 pixels
    Height                      : 1 080 pixels
    Display aspect ratio        : 16:9
    Frame rate mode             : Constant
    Frame rate                  : 23.976 (24000/1001) FPS
    Color space                 : YUV
    Chroma subsampling          : 4:2:0
    Bit depth                   : 8 bits
    Scan type                   : Progressive
    Bits/(Pixel*Frame)          : 0.161
    Stream size                 : 6.79 GiB (84%)
    Title                       : Web HD1080p [CinemaniaHDD]
    Writing library             : x264 core 164 r3094 bfc87b7
    Encoding settings           : cabac=1 / ref=4 / deblock=1:-1:-1 / analyse=0x3:0x133 / me=umh / subme=9 / psy=1 / psy_rd=1.00:0.15 / mixed_ref=1 / me_range=16 / chroma_me=1 / trellis=2 / 8x8dct=1 / cqm=0 / deadzone=21,11 / fast_pskip=1 / chroma_qp_offset=-3 / threads=12 / lookahead_threads=1 / sliced_threads=0 / nr=0 / decimate=1 / interlaced=0 / bluray_compat=0 / stitchable=1 / constrained_intra=0 / bframes=3 / b_pyramid=2 / b_adapt=2 / b_bias=0 / direct=3 / weightb=1 / open_gop=0 / weightp=2 / keyint=48 / keyint_min=4 / scenecut=0 / intra_refresh=0 / rc_lookahead=48 / rc=abr / mbtree=1 / bitrate=8000 / ratetol=1.0 / qcomp=0.60 / qpmin=0 / qpmax=69 / qpstep=4 / vbv_maxrate=8800 / vbv_bufsize=16000 / nal_hrd=none / filler=0 / ip_ratio=1.40 / aq=1:1.00
    Language                    : English
    Default                     : Yes
    Forced                      : Yes
    Color range                 : Limited
    Color primaries             : BT.709
    Transfer characteristics    : BT.709
    Matrix coefficients         : BT.709

    Audio #1
    ID                          : 2
    Format                      : AC-3
    Format/Info                 : Audio Coding 3
    Commercial name             : Dolby Digital
    Codec ID                    : A_AC3
    Duration                    : 2 h 2 min
    Bit rate mode               : Constant
    Bit rate                    : 448 kb/s
    Channel(s)                  : 6 channels
    Channel layout              : L R C LFE Ls Rs
    Sampling rate               : 48.0 kHz
    Frame rate                  : 31.250 FPS (1536 SPF)
    Compression mode            : Lossy
    Stream size                 : 394 MiB (5%)
    Title                       : Español Latino AC3 [CinemaniaHDD]
    Language                    : Spanish
    Service kind                : Complete Main
    Default                     : Yes
    Forced                      : Yes

    Audio #2
    ID                          : 3
    Format                      : E-AC-3
    Format/Info                 : Enhanced AC-3
    Commercial name             : Dolby Digital Plus
    Codec ID                    : A_EAC3
    Duration                    : 2 h 2 min
    Bit rate mode               : Constant
    Bit rate                    : 256 kb/s
    Channel(s)                  : 6 channels
    Channel layout              : L R C LFE Ls Rs
    Sampling rate               : 48.0 kHz
    Frame rate                  : 31.250 FPS (1536 SPF)
    Compression mode            : Lossy
    Stream size                 : 225 MiB (3%)
    Title                       : Español Latino EAC3 [CinemaniaHDD]
    Language                    : Spanish
    Service kind                : Complete Main
    Default                     : No
    Forced                      : No

    Audio #3
    ID                          : 4
    Format                      : E-AC-3 JOC
    Format/Info                 : Enhanced AC-3 with Joint Object Coding
    Commercial name             : Dolby Digital Plus with Dolby Atmos
    Codec ID                    : A_EAC3
    Duration                    : 2 h 2 min
    Bit rate mode               : Constant
    Bit rate                    : 768 kb/s
    Channel(s)                  : 6 channels
    Channel layout              : L R C LFE Ls Rs
    Sampling rate               : 48.0 kHz
    Frame rate                  : 31.250 FPS (1536 SPF)
    Compression mode            : Lossy
    Stream size                 : 676 MiB (8%)
    Title                       : Ingles [CinemaniaHDD]
    Language                    : English
    Service kind                : Complete Main
    Default                     : No
    Forced                      : No
    Complexity index            : 16
    Number of dynamic objects   : 15
    Bed channel count           : 1 channel
    Bed channel configuration   : LFE

    Text #1
    ID                          : 5
    Format                      : UTF-8
    Codec ID                    : S_TEXT/UTF8
    Codec ID/Info               : UTF-8 Plain Text
    Duration                    : 1 h 50 min
    Bit rate                    : 0 b/s
    Count of elements           : 17
    Stream size                 : 409 Bytes (0%)
    Title                       : Forzados-SRT [CinemaniaHDD]
    Language                    : Spanish
    Default                     : Yes
    Forced                      : Yes

    Text #2
    ID                          : 6
    Format                      : UTF-8
    Codec ID                    : S_TEXT/UTF8
    Codec ID/Info               : UTF-8 Plain Text
    Duration                    : 1 h 54 min
    Bit rate                    : 66 b/s
    Count of elements           : 1978
    Stream size                 : 56.2 KiB (0%)
    Title                       : Español-SRT [CinemaniaHDD]
    Language                    : Spanish
    Default                     : No
    Forced                      : No

    Text #3
    ID                          : 7
    Format                      : UTF-8
    Codec ID                    : S_TEXT/UTF8
    Codec ID/Info               : UTF-8 Plain Text
    Duration                    : 1 h 54 min
    Bit rate                    : 70 b/s
    Count of elements           : 1952
    Stream size                 : 58.8 KiB (0%)
    Title                       : Ingles-SRT [CinemaniaHDD]
    Language                    : English
    Default                     : No
    Forced                      : No

    Menu
    00:00:00.000                : Chapter 01
    00:03:17.000                : Chapter 02
    00:11:05.000                : Chapter 03
    00:15:29.000                : Chapter 04
    00:21:45.000                : Chapter 05
    00:24:43.000                : Chapter 06
    00:30:52.000                : Chapter 07
    00:37:36.000                : Chapter 08
    00:48:25.000                : Chapter 09
    00:53:02.000                : Chapter 10
    01:00:44.000                : Chapter 11
    01:05:18.000                : Chapter 12
    01:12:18.000                : Chapter 13
    01:17:20.000                : Chapter 14
    01:20:19.000                : Chapter 15
    01:23:58.000                : Chapter 16
    01:27:29.000                : Chapter 17
    01:33:32.000                : Chapter 18
    01:38:44.000                : Chapter 19
    01:51:06.000                : Chapter 20
    01:54:12.000                : Chapter 21

  • Peso: 8.06 GiB

Sinopsis

Descargar Mansión embrujada (2023) MA WEB-DL 1080p Latino. Una madre soltera y su hijo contratan a un grupo variopinto de supuestos expertos paranormales para ayudarlos a librarse de los «okupas sobrenaturales» que hay en su casa.

Ficha técnica

Video trailer de la película

Enlaces de descarga

Rip de Bluray

Descargar Mansión embrujada (2023) MA WEB-DL 1080p Latino




Aportes de DPeliculasHDmega la pass es:dpeliculashdmega.org Aportes de CinemaniaHD la pass es:cinemaniahdd.com Aportes recientes:cinemaniahdd.net
Guardado en : Comedia , Fantasía

Películas relacionadas

descargar Mansión embrujada (2023) MA WEB-DL 1080p Latino WEBDL 1080p gratis, Mansión embrujada (2023) MA WEB-DL 1080p Latino WEBDL mega 1 link, Mansión embrujada (2023) MA WEB-DL 1080p Latino WEBDL pelicula completa, descargar Mansión embrujada (2023) MA WEB-DL 1080p Latino WEBDL gratis en mega.

Mansión embrujada (2023) MA WEB-DL 1080p Latino pelicula full hd, Mansión embrujada (2023) MA WEB-DL 1080p Latino mega latino, Mansión embrujada (2023) MA WEB-DL 1080p Latino 4k latino, Mansión embrujada (2023) MA WEB-DL 1080p Latino pelicula completa, Mansión embrujada (2023) MA WEB-DL 1080p Latino descargar gratis, descargar Mansión embrujada (2023) MA WEB-DL 1080p Latino pelicula latino, Mansión embrujada (2023) MA WEB-DL 1080p Latino 1 link mega, Mansión embrujada (2023) MA WEB-DL 1080p Latino 1 link google drive, Mansión embrujada (2023) MA WEB-DL 1080p Latino hd 1080p latino.
Comentarios 0