×

¿Problemas para descargar con Mozilla, EDGE? Deshabilita la opción "Abrir vinculos en una pestaña nueva" tal como lo muestra ésta imagen.

Mansión embrujada (2023) WEB-DL 4K UHD HDR Latino

278 vistas

Información de Mansión embrujada (2023) WEB-DL 4K UHD HDR Latino

Datos de la película

  • Calidad: WEBDL
  • Audio: Español Latino AC3 5.1 WEB-DL - Ingles AC3 5.1 WEB-DL
  • Subtitulos: Español Latino SRT- FORZADOS SRT
  • Resolución: 3840x1608p
  • Formato: MKV
  • Codec: HEVC
  • Encoder: Melkor
  • Mediainfo: Clic para Mostrar Datos Ver
  • Mansion Embrujada (2023) WEB UHD HDR Latino.mkv
    Format                      : Matroska
    Format version              : Version 4
    File size                   : 22.2 GiB
    Duration                    : 2 h 2 min
    Overall bit rate            : 25.8 Mb/s
    Movie name                  : Haunted Mansion (2023) CinemaniaHDD.Net
    Encoded date                : UTC 2023-10-05 07:48:51
    Writing application         : mkvmerge v56.1.0 ('My Friend') 64-bit
    Writing library             : libebml v1.4.2 + libmatroska v1.6.4
    Attachments                 : CINEMANIAHD.png
    Site                        : CinemaniaHDD.Net
    Uploader                    : Melkor

    Video
    ID                          : 1
    Format                      : HEVC
    Format/Info                 : High Efficiency Video Coding
    Format profile              : Main 10@L5@High
    HDR format                  : SMPTE ST 2094 App 4, Version 1, HDR10+ Profile A compatible
    Codec ID                    : V_MPEGH/ISO/HEVC
    Duration                    : 2 h 2 min
    Bit rate                    : 24.4 Mb/s
    Width                       : 3 840 pixels
    Height                      : 1 608 pixels
    Display aspect ratio        : 2.40:1
    Frame rate mode             : Constant
    Frame rate                  : 23.976 (24000/1001) FPS
    Color space                 : YUV
    Chroma subsampling          : 4:2:0 (Type 2)
    Bit depth                   : 10 bits
    Bits/(Pixel*Frame)          : 0.165
    Stream size                 : 20.9 GiB (94%)
    Title                       : Web 2160p HDR [CinemaniaHDD]
    Default                     : Yes
    Forced                      : No
    Color range                 : Limited
    Color primaries             : BT.2020
    Transfer characteristics    : PQ
    Matrix coefficients         : BT.2020 non-constant
    Mastering display color pri : BT.2020
    Mastering display luminance : min: 0.0050 cd/m2, max: 1000 cd/m2
    Maximum Content Light Level : 1084 cd/m2
    Maximum Frame-Average Light : 359 cd/m2

    Audio #1
    ID                          : 2
    Format                      : AC-3
    Format/Info                 : Audio Coding 3
    Commercial name             : Dolby Digital
    Codec ID                    : A_AC3
    Duration                    : 2 h 2 min
    Bit rate mode               : Constant
    Bit rate                    : 448 kb/s
    Channel(s)                  : 6 channels
    Channel layout              : L R C LFE Ls Rs
    Sampling rate               : 48.0 kHz
    Frame rate                  : 31.250 FPS (1536 SPF)
    Compression mode            : Lossy
    Stream size                 : 394 MiB (2%)
    Title                       : Español Latino AC3 [CinemaniaHDD]
    Language                    : Spanish
    Service kind                : Complete Main
    Default                     : Yes
    Forced                      : Yes

    Audio #2
    ID                          : 3
    Format                      : E-AC-3
    Format/Info                 : Enhanced AC-3
    Commercial name             : Dolby Digital Plus
    Codec ID                    : A_EAC3
    Duration                    : 2 h 2 min
    Bit rate mode               : Constant
    Bit rate                    : 256 kb/s
    Channel(s)                  : 6 channels
    Channel layout              : L R C LFE Ls Rs
    Sampling rate               : 48.0 kHz
    Frame rate                  : 31.250 FPS (1536 SPF)
    Compression mode            : Lossy
    Stream size                 : 225 MiB (1%)
    Title                       : Español Latino EAC3 [CinemaniaHDD]
    Language                    : Spanish
    Service kind                : Complete Main
    Default                     : No
    Forced                      : No

    Audio #3
    ID                          : 4
    Format                      : E-AC-3 JOC
    Format/Info                 : Enhanced AC-3 with Joint Object Coding
    Commercial name             : Dolby Digital Plus with Dolby Atmos
    Codec ID                    : A_EAC3
    Duration                    : 2 h 2 min
    Bit rate mode               : Constant
    Bit rate                    : 768 kb/s
    Channel(s)                  : 6 channels
    Channel layout              : L R C LFE Ls Rs
    Sampling rate               : 48.0 kHz
    Frame rate                  : 31.250 FPS (1536 SPF)
    Compression mode            : Lossy
    Stream size                 : 676 MiB (3%)
    Title                       : Ingles [CinemaniaHDD]
    Language                    : English
    Service kind                : Complete Main
    Default                     : No
    Forced                      : No
    Complexity index            : 16
    Number of dynamic objects   : 15
    Bed channel count           : 1 channel
    Bed channel configuration   : LFE

    Text #1
    ID                          : 5
    Format                      : UTF-8
    Codec ID                    : S_TEXT/UTF8
    Codec ID/Info               : UTF-8 Plain Text
    Duration                    : 1 h 50 min
    Bit rate                    : 0 b/s
    Count of elements           : 17
    Stream size                 : 409 Bytes (0%)
    Title                       : Forzados-SRT [CinemaniaHDD]
    Language                    : Spanish
    Default                     : Yes
    Forced                      : Yes

    Text #2
    ID                          : 6
    Format                      : UTF-8
    Codec ID                    : S_TEXT/UTF8
    Codec ID/Info               : UTF-8 Plain Text
    Duration                    : 1 h 54 min
    Bit rate                    : 66 b/s
    Count of elements           : 1978
    Stream size                 : 56.2 KiB (0%)
    Title                       : Español-SRT [CinemaniaHDD]
    Language                    : Spanish
    Default                     : No
    Forced                      : No

    Text #3
    ID                          : 7
    Format                      : UTF-8
    Codec ID                    : S_TEXT/UTF8
    Codec ID/Info               : UTF-8 Plain Text
    Duration                    : 1 h 54 min
    Bit rate                    : 70 b/s
    Count of elements           : 1952
    Stream size                 : 58.8 KiB (0%)
    Title                       : Ingles-SRT [CinemaniaHDD]
    Language                    : English
    Default                     : No
    Forced                      : No

    Menu
    00:00:00.000                : Chapter 01
    00:03:17.000                : Chapter 02
    00:11:05.000                : Chapter 03
    00:15:29.000                : Chapter 04
    00:21:45.000                : Chapter 05
    00:24:43.000                : Chapter 06
    00:30:52.000                : Chapter 07
    00:37:36.000                : Chapter 08
    00:48:25.000                : Chapter 09
    00:53:02.000                : Chapter 10
    01:00:44.000                : Chapter 11
    01:05:18.000                : Chapter 12
    01:12:18.000                : Chapter 13
    01:17:20.000                : Chapter 14
    01:20:19.000                : Chapter 15
    01:23:58.000                : Chapter 16
    01:27:29.000                : Chapter 17
    01:33:32.000                : Chapter 18
    01:38:44.000                : Chapter 19
    01:51:06.000                : Chapter 20
    01:54:12.000                : Chapter 21

  • Peso: 22.2 GiB

Sinopsis

Descargar Mansión embrujada (2023) WEB-DL 4K UHD HDR Latino. Una madre soltera y su hijo contratan a un grupo variopinto de supuestos expertos paranormales para ayudarlos a librarse de los «okupas sobrenaturales» que hay en su casa.

Ficha técnica

Video trailer de la película

Enlaces de descarga

Rip de Bluray

Descargar Mansión embrujada (2023) WEB-DL 4K UHD HDR Latino




Aportes de DPeliculasHDmega la pass es:dpeliculashdmega.org Aportes de CinemaniaHD la pass es:cinemaniahdd.com Aportes recientes:cinemaniahdd.net
Guardado en : 4K HDR , 4K UHD , Comedia , Fantasía

Películas relacionadas

descargar Mansión embrujada (2023) WEB-DL 4K UHD HDR Latino WEBDL 1080p gratis, Mansión embrujada (2023) WEB-DL 4K UHD HDR Latino WEBDL mega 1 link, Mansión embrujada (2023) WEB-DL 4K UHD HDR Latino WEBDL pelicula completa, descargar Mansión embrujada (2023) WEB-DL 4K UHD HDR Latino WEBDL gratis en mega.

Mansión embrujada (2023) WEB-DL 4K UHD HDR Latino pelicula full hd, Mansión embrujada (2023) WEB-DL 4K UHD HDR Latino mega latino, Mansión embrujada (2023) WEB-DL 4K UHD HDR Latino 4k latino, Mansión embrujada (2023) WEB-DL 4K UHD HDR Latino pelicula completa, Mansión embrujada (2023) WEB-DL 4K UHD HDR Latino descargar gratis, descargar Mansión embrujada (2023) WEB-DL 4K UHD HDR Latino pelicula latino, Mansión embrujada (2023) WEB-DL 4K UHD HDR Latino 1 link mega, Mansión embrujada (2023) WEB-DL 4K UHD HDR Latino 1 link google drive, Mansión embrujada (2023) WEB-DL 4K UHD HDR Latino hd 1080p latino.
Comentarios 0