×

¿Problemas para descargar con Mozilla, EDGE? Deshabilita la opción "Abrir vinculos en una pestaña nueva" tal como lo muestra ésta imagen.

Manos milagrosas (2009) NF WEB-DL 1080p Latino

60 vistas

Información de Manos milagrosas (2009) NF WEB-DL 1080p Latino

Datos de la película

  • Calidad: WEBDL
  • Audio: Español Latino E-AC3 5.1 Netflix - Ingles E-AC3 5.1 Netflix
  • Subtitulos: Español Latino SRT - Ingles SRT
  • Resolución: 1920x1080p
  • Formato: MKV
  • Codec: H.264
  • Encoder: Melkor
  • Mediainfo: Clic para Mostrar Datos Ver
  • Gifted Hands The Ben Carson Story (2009) NF WEB 1080p Latino.mkv
    Format                      : Matroska
    Format version              : Version 4
    File size                   : 3.65 GiB
    Duration                    : 1 h 30 min
    Overall bit rate mode       : Variable
    Overall bit rate            : 5 779 kb/s
    Movie name                  : Gifted Hands The Ben Carson Story (2009)  CinemaniaHDD.Net
    Encoded date                : UTC 2024-01-19 06:47:27
    Writing application         : mkvmerge v59.0.0 ('Shining Star') 64-bit
    Writing library             : libebml v1.4.2 + libmatroska v1.6.4
    Attachments                 : CINEMANIAHD.png
    Site                        : CinemaniaHDD.Net
    Uploader                    : Melkor

    Video
    ID                          : 1
    Format                      : AVC
    Format/Info                 : Advanced Video Codec
    Format profile              : Main@L4
    Format settings             : CABAC / 3 Ref Frames
    Format settings, CABAC      : Yes
    Format settings, Reference  : 3 frames
    Codec ID                    : V_MPEG4/ISO/AVC
    Duration                    : 1 h 30 min
    Bit rate mode               : Variable
    Bit rate                    : 4 496 kb/s
    Nominal bit rate            : 4 745 kb/s
    Maximum bit rate            : 6 228 kb/s
    Width                       : 1 920 pixels
    Height                      : 1 080 pixels
    Display aspect ratio        : 16:9
    Frame rate mode             : Constant
    Frame rate                  : 23.976 (24000/1001) FPS
    Color space                 : YUV
    Chroma subsampling          : 4:2:0
    Bit depth                   : 8 bits
    Scan type                   : Progressive
    Bits/(Pixel*Frame)          : 0.090
    Stream size                 : 2.84 GiB (78%)
    Title                       : WEB HD1080p [CinemaniaHDD]
    Writing library             : x264 core 148 r2727 7d026e8
    Encoding settings           : cabac=1 / ref=3 / deblock=1:0:0 / analyse=0x1:0x111 / me=umh / subme=10 / psy=1 / psy_rd=1.00:0.00 / mixed_ref=1 / me_range=24 / chroma_me=1 / trellis=2 / 8x8dct=0 / cqm=0 / deadzone=21,11 / fast_pskip=1 / chroma_qp_offset=-2 / threads=6 / lookahead_threads=1 / sliced_threads=0 / nr=0 / decimate=1 / interlaced=0 / bluray_compat=0 / stitchable=1 / constrained_intra=0 / bframes=2 / b_pyramid=0 / b_adapt=2 / b_bias=0 / direct=3 / weightb=1 / open_gop=0 / weightp=2 / keyint=240 / keyint_min=121 / scenecut=0 / intra_refresh=0 / rc_lookahead=48 / rc=2pass / mbtree=1 / bitrate=4745 / ratetol=1.0 / qcomp=0.50 / qpmin=6 / qpmax=51 / qpstep=4 / cplxblur=20.0 / qblur=0.5 / vbv_maxrate=6228 / vbv_bufsize=10380 / nal_hrd=vbr / filler=0 / ip_ratio=1.40 / aq=1:1.00
    Default                     : Yes
    Forced                      : No

    Audio #1
    ID                          : 2
    Format                      : E-AC-3
    Format/Info                 : Enhanced AC-3
    Commercial name             : Dolby Digital Plus
    Codec ID                    : A_EAC3
    Duration                    : 1 h 30 min
    Bit rate mode               : Constant
    Bit rate                    : 640 kb/s
    Channel(s)                  : 6 channels
    Channel layout              : L R C LFE Ls Rs
    Sampling rate               : 48.0 kHz
    Frame rate                  : 31.250 FPS (1536 SPF)
    Compression mode            : Lossy
    Stream size                 : 413 MiB (11%)
    Title                       : Español Latino [CinemaniaHDD]
    Language                    : Spanish
    Service kind                : Complete Main
    Default                     : Yes
    Forced                      : No

    Audio #2
    ID                          : 3
    Format                      : E-AC-3
    Format/Info                 : Enhanced AC-3
    Commercial name             : Dolby Digital Plus
    Codec ID                    : A_EAC3
    Duration                    : 1 h 30 min
    Bit rate mode               : Constant
    Bit rate                    : 640 kb/s
    Channel(s)                  : 6 channels
    Channel layout              : L R C LFE Ls Rs
    Sampling rate               : 48.0 kHz
    Frame rate                  : 31.250 FPS (1536 SPF)
    Compression mode            : Lossy
    Stream size                 : 413 MiB (11%)
    Title                       : Ingles [CinemaniaHDD]
    Language                    : English
    Service kind                : Complete Main
    Default                     : No
    Forced                      : No

    Text #1
    ID                          : 4
    Format                      : UTF-8
    Codec ID                    : S_TEXT/UTF8
    Codec ID/Info               : UTF-8 Plain Text
    Duration                    : 1 h 28 min
    Bit rate                    : 50 b/s
    Count of elements           : 920
    Stream size                 : 32.8 KiB (0%)
    Title                       : Español-SRT [CinemaniaHDD]
    Language                    : Spanish
    Default                     : No
    Forced                      : No

    Text #2
    ID                          : 5
    Format                      : UTF-8
    Codec ID                    : S_TEXT/UTF8
    Codec ID/Info               : UTF-8 Plain Text
    Duration                    : 1 h 28 min
    Bit rate                    : 59 b/s
    Count of elements           : 1323
    Stream size                 : 38.5 KiB (0%)
    Title                       : Ingles-SRT [CinemaniaHDD]
    Language                    : English
    Default                     : No
    Forced                      : No

  • Peso: 3.65 GiB

Sinopsis

Descargar Manos milagrosas (2009) NF WEB-DL 1080p Latino. El joven Ben Carson tenía muy pocas posibilidades en la vida. Hijo de padres separados, criado en la pobreza y rodeado de prejuicios raciales, se volvió un niño irascible y mal estudiante. Aun así, su madre nunca perdió la confianza que tenía puesta en él. Insistiendo en que aprovechara las oportunidades que ella nunca había tenido, fomentó su imaginación, inteligencia y lo que es aún más importante, la confianza en sí mismo. Esa fe en sí mismo sería su don, el cual le llevaría a hacer realidad su sueño de convertirse en uno de los mejores neurocirujanos del mundo…

Ficha técnica

Video trailer de la película

Enlaces de descarga

Rip de Bluray

Descargar Manos milagrosas (2009) NF WEB-DL 1080p Latino




Aportes de DPeliculasHDmega la pass es:dpeliculashdmega.org Aportes de CinemaniaHD la pass es:cinemaniahdd.com Aportes recientes:cinemaniahdd.net
Guardado en : Drama

Películas relacionadas

descargar Manos milagrosas (2009) NF WEB-DL 1080p Latino WEBDL 1080p gratis, Manos milagrosas (2009) NF WEB-DL 1080p Latino WEBDL mega 1 link, Manos milagrosas (2009) NF WEB-DL 1080p Latino WEBDL pelicula completa, descargar Manos milagrosas (2009) NF WEB-DL 1080p Latino WEBDL gratis en mega.

Manos milagrosas (2009) NF WEB-DL 1080p Latino pelicula full hd, Manos milagrosas (2009) NF WEB-DL 1080p Latino mega latino, Manos milagrosas (2009) NF WEB-DL 1080p Latino 4k latino, Manos milagrosas (2009) NF WEB-DL 1080p Latino pelicula completa, Manos milagrosas (2009) NF WEB-DL 1080p Latino descargar gratis, descargar Manos milagrosas (2009) NF WEB-DL 1080p Latino pelicula latino, Manos milagrosas (2009) NF WEB-DL 1080p Latino 1 link mega, Manos milagrosas (2009) NF WEB-DL 1080p Latino 1 link google drive, Manos milagrosas (2009) NF WEB-DL 1080p Latino hd 1080p latino.
Comentarios 0