×

¿Problemas para descargar con Mozilla, EDGE? Deshabilita la opción "Abrir vinculos en una pestaña nueva" tal como lo muestra ésta imagen.

Manchester Junto Al Mar (2016) 4K UHD HDR Web-DL Latino

375 vistas

Información de Manchester Junto Al Mar (2016) 4K UHD HDR Web-DL Latino

Datos de la película

  • Calidad: WEBDL
  • Audio: Se especifica abajo de la Sinopsis
  • Subtitulos: Español Latino SRT - Ingles SRT
  • Resolución: 3840x2080p
  • Formato: MKV
  • Codec: HEVC
  • Encoder: CinefiloCool
  • Mediainfo: Clic para Mostrar Datos Ver
  • Manchester By The Sea (2016) UHD HDR Web-DL Latino-CMHDD.mkv
    Format                      : Matroska
    Format version              : Version 4
    File size                   : 15.2 GiB
    Duration                    : 2 h 17 min
    Overall bit rate            : 15.9 Mb/s
    Movie name                  : Manchester By The Sea (2016) CinemaniaHDD.Net
    Encoded date                : UTC 2020-06-20 01:36:51
    Writing application         : mkvmerge v46.0.0 ('No Deeper Escape') 64-bit
    Writing library             : libebml v1.3.10 + libmatroska v1.5.2
    Attachments                 : CINEMANIAHD.png

    Video
    ID                          : 1
    Format                      : HEVC
    Format/Info                 : High Efficiency Video Coding
    Format profile              : Main 10@L5@Main
    HDR format                  : SMPTE ST 2094 App 4, Version 0
    Codec ID                    : V_MPEGH/ISO/HEVC
    Duration                    : 2 h 17 min
    Bit rate                    : 14.6 Mb/s
    Width                       : 3 840 pixels
    Height                      : 2 080 pixels
    Display aspect ratio        : 1.85:1
    Frame rate mode             : Constant
    Frame rate                  : 23.976 (24000/1001) FPS
    Standard                    : NTSC
    Color space                 : YUV
    Chroma subsampling          : 4:2:0 (Type 2)
    Bit depth                   : 10 bits
    Bits/(Pixel*Frame)          : 0.076
    Stream size                 : 14.0 GiB (92%)
    Title                       : Web 2160p HDR [CinemaniaHDD]
    Default                     : Yes
    Forced                      : No
    Color range                 : Limited
    Color primaries             : BT.2020
    Transfer characteristics    : PQ
    Matrix coefficients         : BT.2020 non-constant
    Mastering display color pri : Display P3
    Mastering display luminance : min: 0.0001 cd/m2, max: 1000 cd/m2
    Maximum Content Light Level : 673 cd/m2
    Maximum Frame-Average Light : 396 cd/m2

    Audio #1
    ID                          : 2
    Format                      : AC-3
    Format/Info                 : Audio Coding 3
    Commercial name             : Dolby Digital
    Codec ID                    : A_AC3
    Duration                    : 2 h 17 min
    Bit rate mode               : Constant
    Bit rate                    : 640 kb/s
    Channel(s)                  : 6 channels
    Channel layout              : L R C LFE Ls Rs
    Sampling rate               : 48.0 kHz
    Frame rate                  : 31.250 FPS (1536 SPF)
    Compression mode            : Lossy
    Stream size                 : 628 MiB (4%)
    Title                       : Español Latino [CinemaniaHDD]
    Language                    : Spanish
    Service kind                : Complete Main
    Default                     : Yes
    Forced                      : No

    Audio #2
    ID                          : 3
    Format                      : E-AC-3
    Format/Info                 : Enhanced AC-3
    Commercial name             : Dolby Digital Plus
    Codec ID                    : A_EAC3
    Duration                    : 2 h 17 min
    Bit rate mode               : Constant
    Bit rate                    : 640 kb/s
    Channel(s)                  : 6 channels
    Channel layout              : L R C LFE Ls Rs
    Sampling rate               : 48.0 kHz
    Frame rate                  : 31.250 FPS (1536 SPF)
    Compression mode            : Lossy
    Stream size                 : 628 MiB (4%)
    Title                       : Ingles [CinemaniaHDD]
    Language                    : English
    Service kind                : Complete Main
    Default                     : No
    Forced                      : No

    Text #1
    ID                          : 4
    Format                      : UTF-8
    Codec ID                    : S_TEXT/UTF8
    Codec ID/Info               : UTF-8 Plain Text
    Duration                    : 2 h 7 min
    Bit rate                    : 0 b/s
    Count of elements           : 3
    Stream size                 : 55.0 Bytes (0%)
    Title                       : Forzados-SRT [CinemaniaHDD]
    Language                    : Spanish
    Default                     : Yes
    Forced                      : No

    Text #2
    ID                          : 5
    Format                      : UTF-8
    Codec ID                    : S_TEXT/UTF8
    Codec ID/Info               : UTF-8 Plain Text
    Duration                    : 2 h 10 min
    Bit rate                    : 57 b/s
    Count of elements           : 1725
    Stream size                 : 54.8 KiB (0%)
    Title                       : Español-SRT [CinemaniaHDD]
    Language                    : Spanish
    Default                     : No
    Forced                      : No

    Text #3
    ID                          : 6
    Format                      : UTF-8
    Codec ID                    : S_TEXT/UTF8
    Codec ID/Info               : UTF-8 Plain Text
    Duration                    : 2 h 11 min
    Bit rate                    : 73 b/s
    Count of elements           : 2260
    Stream size                 : 70.6 KiB (0%)
    Title                       : Ingles-SRT [CinemaniaHDD]
    Language                    : English
    Default                     : No
    Forced                      : No

    Menu
    00:00:00.000                : :1. Amazon Studios
    00:00:20.000                : :2. Studio Logo
    00:00:38.000                : :3. Opening Credits
    00:01:04.000                : :4. Manchester by the sea
    00:03:13.000                : :5. Lee does repair work for tenants
    00:08:20.000                : :6. Mr. Emery tells Lee he needs to work on his attitude
    00:09:03.000                : :7. Lee finds himself alone at a bar
    00:12:48.000                : :8. Lee receives a phone call
    00:15:51.000                : :9. Lee arrives at the hospital
    00:19:56.000                : :10. Dr. Bethany tells Joe his condition
    00:22:42.000                : :11. Lee sees Joe
    00:26:06.000                : :12. Lee reflects on past memories
    00:33:12.000                : :13. Lee calls his nephew's school
    00:34:04.000                : :14. Lee finds Patrick at his hockey practice
    00:36:47.000                : :15. Lee drives Patrick to the hospital to see Joe
    00:38:43.000                : :16. Patrick's friends stay the night to comfort him
    00:43:29.000                : :17. Patrick's mom
    00:45:05.000                : :18. The next morning
    00:47:03.000                : :19. Didn't you spend a lot of time in Manchester
    00:58:47.000                : :20. Walk us through what happened
    01:03:39.000                : :21. Lee and Patrick leave the lawyer's office
    01:05:19.000                : :22. Lee and Patrick see George about Joe's boat
    01:07:37.000                : :23. Funeral arrangements
    01:13:16.000                : :24. Band practice
    01:15:51.000                : :25. Lee picks up Patrick
    01:17:53.000                : :26. Lee receives a phone call from Randi
    01:20:44.000                : :27. Funeral time
    01:24:47.000                : :28. Living arrangements
    01:30:47.000                : :29. Lee tells Patrick the plan
    01:33:11.000                : :30. Lee gets his belongings from Boston
    01:35:53.000                : :31. Patrick confronts Lee about an earlier phone call
    01:37:33.000                : :32. Taking care of business
    01:39:42.000                : :33. Patrick asks Lee for a favor
    01:45:41.000                : :34. Patrick has lunch with Elise and Jeffrey
    01:51:08.000                : :35. That's a great idea
    01:52:53.000                : :36. Lee runs errands to give Patrick alone time
    01:58:15.000                : :37. Lee gets himself into trouble
    02:02:22.000                : :38. A trip down memory lane
    02:04:06.000                : :39. Lee gives Patrick a new option
    02:07:01.000                : :40. Spring is here
    02:09:45.000                : :41. Until then
    02:12:31.000                : :42. End Credits

  • Peso: 15.2 GiB

Sinopsis

Descargar Manchester Junto Al Mar (2016) 4K UHD HDR Web-DL Latino. Lee Chandler (Casey Affleck) es un solitario encargado de mantenimiento de edificios de Boston que se ve obligado a regresar a su pequeño pueblo natal tras enterarse de que su hermano Joe ha fallecido. Allí se encuentra con su sobrino de 16 años, del que tendrá que hacerse cargo. De pronto, Lee se verá obligado a enfrentarse a un pasado trágico que le llevó a separarse de su esposa Randi (Michelle Williams) y de la comunidad en la que nació y creció.

Audio Español Latino AC3 5.1 Bluray  – Ingles EAC3 5.1 WebDL

Ficha técnica

Video trailer de la película

Enlaces de descarga

Rip de Bluray

Descargar Manchester Junto Al Mar (2016) 4K UHD HDR Web-DL Latino




Aportes de DPeliculasHDmega la pass es:dpeliculashdmega.org Aportes de CinemaniaHD la pass es:cinemaniahdd.com
Guardado en : 4K HDR , 4K UHD , Drama , Familia

Películas relacionadas

  • Togo (2022) NF WEB-DL 1080p Latino

    Togo (2022) NF WEB-DL 1080p Latino

    2022
    Togo (2022) NF WEB-DL 1080p Latino

    1h 35m 2022

    Descargar Togo (2022) NF WEB-DL 1080p Latino. Los narcos de poca monta están copando las calles de Montevideo...

    Director: Adrián Caetano

    Género: Crimen

    Actores: Tito Prieto

  • El Ultimo Juego (2021) WEB-DL 1080p Latino

    El Ultimo Juego (2021) WEB-DL 1080p Latino

    2021
    El Ultimo Juego (2021) WEB-DL 1080p Latino

    1h 21m 2021

    Descargar El Ultimo Juego (2021) WEB-DL 1080p Latino. 6 extraños se despiertan dentro de una habitación...

    Director: John David Moffat IV

    Género: Drama

    Actores: Yasmin Irvine

  • DC Liga De Supermascotas (2022) HD 1080p Latino

    DC Liga De Supermascotas (2022) HD 1080p Latino

    2022
    DC Liga De Supermascotas (2022) HD 1080p Latino

    1h 45m 2022

    Descargar DC Liga De Supermascotas (2022) HD 1080p Latino. Krypto el Superperro y Superman son amigos...

    Director: Sam Levine

    Género: Acción

    Actores: Yvette Nicole Brown

descargar Manchester Junto Al Mar (2016) 4K UHD HDR Web-DL Latino WEBDL 1080p gratis, Manchester Junto Al Mar (2016) 4K UHD HDR Web-DL Latino WEBDL mega 1 link, Manchester Junto Al Mar (2016) 4K UHD HDR Web-DL Latino WEBDL pelicula completa, descargar Manchester Junto Al Mar (2016) 4K UHD HDR Web-DL Latino WEBDL gratis en mega.

Manchester Junto Al Mar (2016) 4K UHD HDR Web-DL Latino pelicula full hd, Manchester Junto Al Mar (2016) 4K UHD HDR Web-DL Latino mega latino, Manchester Junto Al Mar (2016) 4K UHD HDR Web-DL Latino 4k latino, Manchester Junto Al Mar (2016) 4K UHD HDR Web-DL Latino pelicula completa, Manchester Junto Al Mar (2016) 4K UHD HDR Web-DL Latino descargar gratis, descargar Manchester Junto Al Mar (2016) 4K UHD HDR Web-DL Latino pelicula latino, Manchester Junto Al Mar (2016) 4K UHD HDR Web-DL Latino 1 link mega, Manchester Junto Al Mar (2016) 4K UHD HDR Web-DL Latino 1 link google drive, Manchester Junto Al Mar (2016) 4K UHD HDR Web-DL Latino hd 1080p latino.
Comentarios 0