×

¿Problemas para descargar con Mozilla, EDGE? Deshabilita la opción "Abrir vinculos en una pestaña nueva" tal como lo muestra ésta imagen.

Manchester Junto Al Mar (2016) 1080p Latino

2.326 vistas

Información de Manchester Junto Al Mar (2016) 1080p Latino

Datos de la película

  • Calidad: 1080p
  • Audio: Español Latino AC3 5.1 BLURAY - Ingles AC3 5.1 BLURAY
  • Subtitulos: Español Latino SRT - Ingles SRT
  • Resolución: 1920x1036p
  • Formato: MKV
  • Codec: H.264
  • Encoder: CinefiloCool
  • Mediainfo: Clic para Mostrar Datos Ver
  • Manchester Junto Al Mar (2016) 1080p Latino-CMHDD.mkv
    Format                      : Matroska
    Format version              : Version 4
    File size                   : 4.39 GiB
    Duration                    : 2 h 17 min
    Overall bit rate            : 4 590 kb/s
    Movie name                  : Manchester By The Sea (2016) CinemaniaHDD.Net
    Encoded date                : UTC 2020-06-19 18:45:18
    Writing application         : mkvmerge v46.0.0 ('No Deeper Escape') 64-bit
    Writing library             : libebml v1.3.10 + libmatroska v1.5.2
    Attachments                 : CINEMANIAHD.png

    Video
    ID                          : 1
    Format                      : AVC
    Format/Info                 : Advanced Video Codec
    Format profile              : High@L4.1
    Format settings             : CABAC / 4 Ref Frames
    Format settings, CABAC      : Yes
    Format settings, Reference  : 4 frames
    Codec ID                    : V_MPEG4/ISO/AVC
    Duration                    : 2 h 17 min
    Bit rate                    : 3 500 kb/s
    Width                       : 1 920 pixels
    Height                      : 1 036 pixels
    Display aspect ratio        : 1.85:1
    Frame rate mode             : Constant
    Frame rate                  : 23.976 (24000/1001) FPS
    Color space                 : YUV
    Chroma subsampling          : 4:2:0
    Bit depth                   : 8 bits
    Scan type                   : Progressive
    Bits/(Pixel*Frame)          : 0.073
    Stream size                 : 3.35 GiB (76%)
    Title                       : HD1080p [CinemaniaHDD]
    Writing library             : x264 core 157 r2935 545de2f
    Encoding settings           : cabac=1 / ref=4 / deblock=1:-1:-1 / analyse=0x3:0x133 / me=umh / subme=9 / psy=1 / psy_rd=1.00:0.15 / mixed_ref=1 / me_range=16 / chroma_me=1 / trellis=2 / 8x8dct=1 / cqm=0 / deadzone=21,11 / fast_pskip=1 / chroma_qp_offset=-3 / threads=24 / lookahead_threads=2 / sliced_threads=0 / nr=0 / decimate=1 / interlaced=0 / bluray_compat=0 / constrained_intra=0 / bframes=3 / b_pyramid=2 / b_adapt=2 / b_bias=0 / direct=3 / weightb=1 / open_gop=0 / weightp=2 / keyint=240 / keyint_min=24 / scenecut=40 / intra_refresh=0 / rc_lookahead=60 / rc=2pass / mbtree=1 / bitrate=3500 / ratetol=1.0 / qcomp=0.60 / qpmin=0 / qpmax=69 / qpstep=4 / cplxblur=20.0 / qblur=0.5 / vbv_maxrate=62500 / vbv_bufsize=78125 / nal_hrd=none / filler=0 / ip_ratio=1.40 / aq=1:1.00
    Default                     : Yes
    Forced                      : No
    Color range                 : Limited
    Color primaries             : BT.709
    Transfer characteristics    : BT.709
    Matrix coefficients         : BT.709

    Audio #1
    ID                          : 2
    Format                      : AC-3
    Format/Info                 : Audio Coding 3
    Commercial name             : Dolby Digital
    Codec ID                    : A_AC3
    Duration                    : 2 h 17 min
    Bit rate mode               : Constant
    Bit rate                    : 640 kb/s
    Channel(s)                  : 6 channels
    Channel layout              : L R C LFE Ls Rs
    Sampling rate               : 48.0 kHz
    Frame rate                  : 31.250 FPS (1536 SPF)
    Compression mode            : Lossy
    Delay relative to video     : -5 ms
    Stream size                 : 627 MiB (14%)
    Title                       : Español Latino [CinemaniaHDD]
    Language                    : Spanish
    Service kind                : Complete Main
    Default                     : Yes
    Forced                      : No

    Audio #2
    ID                          : 3
    Format                      : AC-3
    Format/Info                 : Audio Coding 3
    Commercial name             : Dolby Digital
    Codec ID                    : A_AC3
    Duration                    : 2 h 17 min
    Bit rate mode               : Constant
    Bit rate                    : 448 kb/s
    Channel(s)                  : 6 channels
    Channel layout              : L R C LFE Ls Rs
    Sampling rate               : 48.0 kHz
    Frame rate                  : 31.250 FPS (1536 SPF)
    Compression mode            : Lossy
    Delay relative to video     : -5 ms
    Stream size                 : 439 MiB (10%)
    Title                       : Ingles [CinemaniaHDD]
    Language                    : English
    Service kind                : Complete Main
    Default                     : No
    Forced                      : No

    Text #1
    ID                          : 4
    Format                      : UTF-8
    Codec ID                    : S_TEXT/UTF8
    Codec ID/Info               : UTF-8 Plain Text
    Duration                    : 2 h 7 min
    Bit rate                    : 0 b/s
    Count of elements           : 3
    Stream size                 : 55.0 Bytes (0%)
    Title                       : Forzados-SRT [CinemaniaHDD]
    Language                    : Spanish
    Default                     : Yes
    Forced                      : No

    Text #2
    ID                          : 5
    Format                      : UTF-8
    Codec ID                    : S_TEXT/UTF8
    Codec ID/Info               : UTF-8 Plain Text
    Duration                    : 2 h 10 min
    Bit rate                    : 57 b/s
    Count of elements           : 1725
    Stream size                 : 54.8 KiB (0%)
    Title                       : Español-SRT [CinemaniaHDD]
    Language                    : Spanish
    Default                     : No
    Forced                      : No

    Text #3
    ID                          : 6
    Format                      : UTF-8
    Codec ID                    : S_TEXT/UTF8
    Codec ID/Info               : UTF-8 Plain Text
    Duration                    : 2 h 11 min
    Bit rate                    : 73 b/s
    Count of elements           : 2260
    Stream size                 : 70.6 KiB (0%)
    Title                       : Ingles-SRT [CinemaniaHDD]
    Language                    : English
    Default                     : No
    Forced                      : No

    Menu
    00:00:00.000                : :Chapter 1
    00:12:56.818                : :Chapter 2
    00:26:14.740                : :Chapter 3
    00:36:55.505                : :Chapter 4
    00:45:13.002                : :Chapter 5
    00:51:34.091                : :Chapter 6
    01:04:09.596                : :Chapter 7
    01:12:58.124                : :Chapter 8
    01:18:04.263                : :Chapter 9
    01:27:01.133                : :Chapter 10
    01:33:56.131                : :Chapter 11
    01:38:55.555                : :Chapter 12
    01:45:49.802                : :Chapter 13
    01:51:39.193                : :Chapter 14
    02:02:30.677                : :Chapter 15
    02:07:09.122                : :Chapter 16

  • Peso: 4.39 GiB

Sinopsis

Descargar Manchester Junto Al Mar (2016) 1080p Latino. Lee Chandler (Casey Affleck) es un solitario encargado de mantenimiento de edificios de Boston que se ve obligado a regresar a su pequeño pueblo natal tras enterarse de que su hermano Joe ha fallecido. Allí se encuentra con su sobrino de 16 años, del que tendrá que hacerse cargo. De pronto, Lee se verá obligado a enfrentarse a un pasado trágico que le llevó a separarse de su esposa Randi (Michelle Williams) y de la comunidad en la que nació y creció.

Ficha técnica

Video trailer de la película

Enlaces de descarga

Rip de Bluray

Descargar Manchester Junto Al Mar (2016) 1080p Latino




Aportes de DPeliculasHDmega la pass es:dpeliculashdmega.org Aportes de CinemaniaHD la pass es:cinemaniahdd.com
Guardado en : Drama , Familia , HD 1080p

Películas relacionadas

descargar Manchester Junto Al Mar (2016) 1080p Latino 1080p 1080p gratis, Manchester Junto Al Mar (2016) 1080p Latino 1080p mega 1 link, Manchester Junto Al Mar (2016) 1080p Latino 1080p pelicula completa, descargar Manchester Junto Al Mar (2016) 1080p Latino 1080p gratis en mega.

Manchester Junto Al Mar (2016) 1080p Latino pelicula full hd, Manchester Junto Al Mar (2016) 1080p Latino mega latino, Manchester Junto Al Mar (2016) 1080p Latino 4k latino, Manchester Junto Al Mar (2016) 1080p Latino pelicula completa, Manchester Junto Al Mar (2016) 1080p Latino descargar gratis, descargar Manchester Junto Al Mar (2016) 1080p Latino pelicula latino, Manchester Junto Al Mar (2016) 1080p Latino 1 link mega, Manchester Junto Al Mar (2016) 1080p Latino 1 link google drive, Manchester Junto Al Mar (2016) 1080p Latino hd 1080p latino.
Comentarios 0