Mañana empieza todo (2016) WEB-DL 1080p Latino

1.311 vistas
1 estrella2 estrellas3 estrellas4 estrellas5 estrellas (Ninguna valoración todavía)
Cargando…

Información de Mañana empieza todo (2016) WEB-DL 1080p Latino

Datos de la película

  • Calidad: WEBDL
  • Audio: Se especifica abajo de la Sinopsis
  • Subtitulos: Español Latino SRT
  • Resolución: 1908X792
  • Formato: MKV
  • Codec: H.264
  • Encoder: Dpelis
  • Mediainfo: Clic para Mostrar Datos Ver
  • Format                                   : Matroska
    Format version                           : Version 4 / Version 2
    File size                                : 4.37 GiB
    Duration                                 : 1 h 57 min
    Overall bit rate                         : 5 327 kb/s
    Movie name                               : dpeliculashdmega.org
    Encoded date                             : UTC 2017-11-01 19:15:46
    Writing application                      : mkvmerge v6.7.0 ('Back to the Ground') 32bit built on Jan  8 2014 15:03:17
    Writing library                          : libebml v1.3.0 + libmatroska v1.4.1

    Video
    ID                                       : 1
    Format                                   : AVC
    Format/Info                              : Advanced Video Codec
    Format profile                           : High@L4
    Format settings                          : CABAC / 5 Ref Frames
    Format settings, CABAC                   : Yes
    Format settings, RefFrames               : 5 frames
    Codec ID                                 : V_MPEG4/ISO/AVC
    Duration                                 : 1 h 57 min
    Bit rate                                 : 4 453 kb/s
    Width                                    : 1 908 pixels
    Height                                   : 792 pixels
    Display aspect ratio                     : 2.40:1
    Frame rate mode                          : Constant
    Frame rate                               : 23.976 (24000/1001) FPS
    Color space                              : YUV
    Chroma subsampling                       : 4:2:0
    Bit depth                                : 8 bits
    Scan type                                : Progressive
    Bits/(Pixel*Frame)                       : 0.123
    Stream size                              : 3.66 GiB (84%)
    Title                                    : Mañana empieza todo (2016) WEB-DL 1080p Latino
    Language                                 : English
    Default                                  : Yes
    Forced                                   : No
    Color range                              : Limited
    Color primaries                          : BT.709
    Transfer characteristics                 : BT.709
    Matrix coefficients                      : BT.709

    Audio #1
    ID                                       : 2
    Format                                   : AC-3
    Format/Info                              : Audio Coding 3
    Format settings, Endianness              : Big
    Codec ID                                 : A_AC3
    Duration                                 : 1 h 57 min
    Bit rate mode                            : Constant
    Bit rate                                 : 384 kb/s
    Channel(s)                               : 6 channels
    Channel positions                        : Front: L C R, Side: L R, LFE
    Sampling rate                            : 48.0 kHz
    Frame rate                               : 31.250 FPS (1536 SPF)
    Bit depth                                : 16 bits
    Compression mode                         : Lossy
    Stream size                              : 323 MiB (7%)
    Title                                    : Latino-AC3
    Language                                 : Spanish
    Service kind                             : Complete Main
    Default                                  : Yes
    Forced                                   : No

    Audio #2
    ID                                       : 3
    Format                                   : AC-3
    Format/Info                              : Audio Coding 3
    Format settings, Endianness              : Big
    Codec ID                                 : A_AC3
    Duration                                 : 1 h 57 min
    Bit rate mode                            : Constant
    Bit rate                                 : 384 kb/s
    Channel(s)                               : 6 channels
    Channel positions                        : Front: L C R, Side: L R, LFE
    Sampling rate                            : 48.0 kHz
    Frame rate                               : 31.250 FPS (1536 SPF)
    Bit depth                                : 16 bits
    Compression mode                         : Lossy
    Stream size                              : 323 MiB (7%)
    Title                                    : Frances-AC3
    Language                                 : French
    Service kind                             : Complete Main
    Default                                  : No
    Forced                                   : No

    Text
    ID                                       : 4
    Format                                   : UTF-8
    Codec ID                                 : S_TEXT/UTF8
    Codec ID/Info                            : UTF-8 Plain Text
    Language                                 : Spanish
    Default                                  : No
    Forced                                   : No

    Menu
    00:00:00.000                             : en:1
    00:04:08.000                             : en:2
    00:14:06.000                             : en:3
    00:25:34.000                             : en:4
    00:35:35.000                             : en:5
    00:45:09.000                             : en:6
    00:56:15.000                             : en:7
    01:04:30.000                             : en:8
    01:14:07.000                             : en:9
    01:24:54.000                             : en:10
    01:35:16.000                             : en:11
    01:46:33.000                             : en:12
    01:51:54.000                             : en:13

  • Peso: 4.37 GiB

Sinopsis

Samuel vive la vida sin responsabilidades en la playa en el sur de Francia. Hasta que un día, una de sus antiguos amores le deja en los brazos a un bebé de pocos meses, Gloria: su hija. Incapaz de cuidar de un bebé y decidido a devolverle la niña a su madre, Samuel se va a a Londres para tratar de encontrarla pero no tiene éxito. Ocho años más tarde, mientras que Samuel y Gloria viven en Londres y son inseparables, la madre de Gloria regresa a su vida para recuperar a su hija. Remake de ‘No se aceptan devoluciones’ (2013), la película mexicana más exitosa de la historia.

 

 

Español Latino AC3 (5.1) iTunes – Francés AC3 (5.1) iTunes

Ficha técnica

  • Titulo original: Demain tout commence
  • Fecha de lanzamiento: 07-12-2016 (France)
  • Director: Hugo Gélin
  • Género: Comedia, Drama
  • Puntuación: 0.0 0 votos
  • Duración:
    1 h 57 min

Video trailer de la película

Enlaces de descarga

Rip de Bluray

Descargar Mañana empieza todo (2016) WEB-DL 1080p Latino




Aportes de DPeliculasHDmega la pass es:dpeliculashdmega.org Aportes de CinemaniaHD la pass es:cinemaniahdd.com
Guardado en : Comedia , Drama

Películas relacionadas

  • Arrow (2018) Temporada 07 AMZN Web-DL 1080p Latino

    2012
    Arrow (2018) Temporada 07 AMZN Web-DL 1080p Latino

    2.7 0h 42m 2012

    Descargar Arrow Temporada 07 AMZN Web-DL 1080p Latino; Mega, Google Drive. No ha habido escasez de llamadas...

    Director: Marc Guggenheim

    Género: Action & Adventure

    Actores: Stephen Amell

  • Tiger (2018) 1080p Latino

    2018
    Tiger (2018) 1080p Latino

    1.0 1h 40m 2018

    Descargar Tiger (2018) 1080p Latino, Mega, Google Drive. Tiger se inspira en la historia real de Pardeep...

    Director: Alister Grierson

    Género: Drama

    Actores: Prem Singh

  • Mi cena con Hervé (2018) Web-DL AMZN 1080p Latino

    2018
    Mi cena con Hervé (2018) Web-DL AMZN 1080p Latino

    5.0 1h 50m 2018

    Descargar Mi cena con Hervé (2018) Web-DL AMZN 1080p Latino, Mega, Google Drive. Biopic sobre el actor...

    Director: Sacha Gervasi

    Género: Drama

    Actores: Wallace Langham

Comentarios 0