×

¿Problemas para descargar con Mozilla, EDGE? Deshabilita la opción "Abrir vinculos en una pestaña nueva" tal como lo muestra ésta imagen.

Man on Fire (2004) REMUX 1080p Latino – CMHDD

415 vistas

Información de Man on Fire (2004) REMUX 1080p Latino – CMHDD

Datos de la película

  • Calidad: Full 1080p
  • Audio: Español Latino AC3 5.1 BLURAY - Ingles DTS 5.1 BLURAY
  • Subtitulos: Español Latino PGS
  • Resolución: 1920x1080p
  • Formato: MKV
  • Codec: H.264
  • Encoder: Dracarys
  • Mediainfo: Clic para Mostrar Datos Ver
  • Format                      : Matroska
    Format version              : Version 4
    File size                   : 34.9 GiB
    Duration                    : 2 h 26 min
    Overall bit rate mode       : Variable
    Overall bit rate            : 34.2 Mb/s
    Movie name                  : Man on Fire (2004) REMUX 1080p Latino - CMHDD
    Encoded date                : UTC 2022-03-09 16:35:55
    Writing application         : mkvmerge v17.0.0 ('Be Ur Friend') 64-bit
    Writing library             : libebml v1.3.5 + libmatroska v1.4.8

    Video
    ID                          : 1
    Format                      : AVC
    Format/Info                 : Advanced Video Codec
    Format profile              : High@L4.1
    Format settings             : CABAC / 3 Ref Frames
    Format settings, CABAC      : Yes
    Format settings, Reference  : 3 frames
    Codec ID                    : V_MPEG4/ISO/AVC
    Duration                    : 2 h 26 min
    Bit rate                    : 29.9 Mb/s
    Width                       : 1 920 pixels
    Height                      : 1 080 pixels
    Display aspect ratio        : 16:9
    Frame rate mode             : Constant
    Frame rate                  : 23.976 (24000/1001) FPS
    Color space                 : YUV
    Chroma subsampling          : 4:2:0
    Bit depth                   : 8 bits
    Scan type                   : Progressive
    Bits/(Pixel*Frame)          : 0.601
    Stream size                 : 30.5 GiB (87%)
    Default                     : Yes
    Forced                      : No

    Audio #1
    ID                          : 2
    Format                      : DTS XLL
    Format/Info                 : Digital Theater Systems
    Commercial name             : DTS-HD Master Audio
    Codec ID                    : A_DTS
    Duration                    : 2 h 26 min
    Bit rate mode               : Variable
    Bit rate                    : 3 878 kb/s
    Channel(s)                  : 6 channels
    Channel layout              : C L R Ls Rs LFE
    Sampling rate               : 48.0 kHz
    Frame rate                  : 93.750 FPS (512 SPF)
    Bit depth                   : 24 bits
    Compression mode            : Lossless
    Delay relative to video     : 3 ms
    Stream size                 : 3.96 GiB (11%)
    Language                    : English
    Default                     : No
    Forced                      : No

    Audio #2
    ID                          : 3
    Format                      : AC-3
    Format/Info                 : Audio Coding 3
    Commercial name             : Dolby Digital
    Codec ID                    : A_AC3
    Duration                    : 2 h 26 min
    Bit rate mode               : Constant
    Bit rate                    : 448 kb/s
    Channel(s)                  : 6 channels
    Channel layout              : L R C LFE Ls Rs
    Sampling rate               : 48.0 kHz
    Frame rate                  : 31.250 FPS (1536 SPF)
    Compression mode            : Lossy
    Delay relative to video     : 18 ms
    Stream size                 : 468 MiB (1%)
    Language                    : Spanish
    Service kind                : Complete Main
    Default                     : Yes
    Forced                      : No

    Text
    ID                          : 4
    Format                      : PGS
    Muxing mode                 : zlib
    Codec ID                    : S_HDMV/PGS
    Codec ID/Info               : Picture based subtitle format used on BDs/HD-DVDs
    Duration                    : 2 h 18 min
    Bit rate                    : 30.9 kb/s
    Count of elements           : 2053
    Stream size                 : 30.7 MiB (0%)
    Language                    : Spanish
    Default                     : No
    Forced                      : No

    Menu
    00:00:00.000                : en:Chapter 1
    00:03:51.397                : en:Chapter 2
    00:06:42.568                : en:Chapter 3
    00:11:09.043                : en:Chapter 4
    00:18:12.341                : en:Chapter 5
    00:22:07.409                : en:Chapter 6
    00:26:28.920                : en:Chapter 7
    00:30:17.774                : en:Chapter 8
    00:35:17.865                : en:Chapter 9
    00:40:29.593                : en:Chapter 10
    00:45:44.032                : en:Chapter 11
    00:49:33.011                : en:Chapter 12
    00:53:00.969                : en:Chapter 13
    00:57:53.344                : en:Chapter 14
    01:00:40.303                : en:Chapter 15
    01:04:05.758                : en:Chapter 16
    01:07:58.324                : en:Chapter 17
    01:12:00.816                : en:Chapter 18
    01:18:53.103                : en:Chapter 19
    01:26:55.418                : en:Chapter 20
    01:32:07.438                : en:Chapter 21
    01:36:49.553                : en:Chapter 22
    01:39:18.035                : en:Chapter 23
    01:49:03.453                : en:Chapter 24
    01:57:23.244                : en:Chapter 25
    02:07:36.023                : en:Chapter 26
    02:13:30.126                : en:Chapter 27
    02:20:17.992                : en:Chapter 28

  • Peso: 34.9 GiB

Sinopsis

México D.F. Un agente del gobierno decepcionado con su vida, acepta a regañadientes un trabajo que consiste en proteger a una niña cuyos padres han recibido amenazas de secuestro. La relación con su pequeña protegida irá creciendo hasta despertar en él un espíritu perdido. Pero cuando la niña es secuestrada, su rabia se desatará contra los responsables.

Ficha técnica

Video trailer de la película

Enlaces de descarga

Rip de Bluray

Descargar Man on Fire (2004) REMUX 1080p Latino – CMHDD


Aportes de DPeliculasHDmega la pass es:dpeliculashdmega.org Aportes de CinemaniaHD la pass es:cinemaniahdd.com
Guardado en : Acción , Drama , Suspenso

Películas relacionadas

descargar Man on Fire (2004) REMUX 1080p Latino – CMHDD Full 1080p 1080p gratis, Man on Fire (2004) REMUX 1080p Latino – CMHDD Full 1080p mega 1 link, Man on Fire (2004) REMUX 1080p Latino – CMHDD Full 1080p pelicula completa, descargar Man on Fire (2004) REMUX 1080p Latino – CMHDD Full 1080p gratis en mega.

Man on Fire (2004) REMUX 1080p Latino – CMHDD pelicula full hd, Man on Fire (2004) REMUX 1080p Latino – CMHDD mega latino, Man on Fire (2004) REMUX 1080p Latino – CMHDD 4k latino, Man on Fire (2004) REMUX 1080p Latino – CMHDD pelicula completa, Man on Fire (2004) REMUX 1080p Latino – CMHDD descargar gratis, descargar Man on Fire (2004) REMUX 1080p Latino – CMHDD pelicula latino, Man on Fire (2004) REMUX 1080p Latino – CMHDD 1 link mega, Man on Fire (2004) REMUX 1080p Latino – CMHDD 1 link google drive, Man on Fire (2004) REMUX 1080p Latino – CMHDD hd 1080p latino.
Comentarios 0