×

¿Problemas para descargar con Mozilla, EDGE? Deshabilita la opción "Abrir vinculos en una pestaña nueva" tal como lo muestra ésta imagen.

Mammals (2022) Primera Temporada AMZN WEB.DL

29 vistas

Información de Mammals (2022) Primera Temporada AMZN WEB.DL

Datos de la película

  • Calidad: 1080p
  • Audio: Español Latino AC3 5.1 WEB-DL - Ingles AC3 5.1 WEB-DL
  • Subtitulos: Español Latino SRT- FORZADOS SRT
  • Resolución: 1920x816
  • Formato: MKV
  • Codec: H.264
  • Encoder: cinemaniahdd
  • Mediainfo: Clic para Mostrar Datos Ver
  • Mammals T01E01 AMZN WEB-DL 1080p Latino [CNMNHDD].mkv
    Format                      : Matroska
    Format version              : Version 4
    File size                   : 1.79 GiB
    Duration                    : 25 min 37 s
    Overall bit rate            : 10.0 Mb/s
    Movie name                  : Mammals S01E01 - Episode 1 [1080p]  - CinemaniaHDD.Net
    Encoded date                : UTC 2022-11-11 00:59:59
    Writing application         : mkvmerge v56.1.0 ('My Friend') 64-bit
    Writing library             : libebml v1.4.2 + libmatroska v1.6.4

    Video
    ID                          : 1
    Format                      : AVC
    Format/Info                 : Advanced Video Codec
    Format profile              : High@L4
    Format settings             : CABAC / 4 Ref Frames
    Format settings, CABAC      : Yes
    Format settings, Reference  : 4 frames
    Codec ID                    : V_MPEG4/ISO/AVC
    Duration                    : 25 min 37 s
    Bit rate mode               : Constant
    Bit rate                    : 8 078 kb/s
    Nominal bit rate            : 10 000 kb/s
    Width                       : 1 920 pixels
    Height                      : 816 pixels
    Display aspect ratio        : 2.35:1
    Frame rate mode             : Constant
    Frame rate                  : 25.000 FPS
    Color space                 : YUV
    Chroma subsampling          : 4:2:0
    Bit depth                   : 8 bits
    Scan type                   : Progressive
    Bits/(Pixel*Frame)          : 0.206
    Stream size                 : 1.45 GiB (81%)
    Title                       : CinemaniaHDD
    Default                     : Yes
    Forced                      : No
    Color range                 : Limited
    Color primaries             : BT.709
    Transfer characteristics    : BT.709
    Matrix coefficients         : BT.709

    Audio #1
    ID                          : 2
    Format                      : AC-3
    Format/Info                 : Audio Coding 3
    Commercial name             : Dolby Digital
    Codec ID                    : A_AC3
    Duration                    : 25 min 37 s
    Bit rate mode               : Constant
    Bit rate                    : 640 kb/s
    Channel(s)                  : 6 channels
    Channel layout              : L R C LFE Ls Rs
    Sampling rate               : 48.0 kHz
    Frame rate                  : 31.250 FPS (1536 SPF)
    Compression mode            : Lossy
    Stream size                 : 117 MiB (6%)
    Title                       : Español latino [CinemaniaHDD]
    Language                    : Spanish
    Service kind                : Complete Main
    Default                     : Yes
    Forced                      : No

    Audio #2
    ID                          : 3
    Format                      : E-AC-3
    Format/Info                 : Enhanced AC-3
    Commercial name             : Dolby Digital Plus
    Codec ID                    : A_EAC3
    Duration                    : 25 min 37 s
    Bit rate mode               : Constant
    Bit rate                    : 640 kb/s
    Channel(s)                  : 6 channels
    Channel layout              : L R C LFE Ls Rs
    Sampling rate               : 48.0 kHz
    Frame rate                  : 31.250 FPS (1536 SPF)
    Compression mode            : Lossy
    Stream size                 : 117 MiB (6%)
    Title                       : Español latino / E-AC3 [CinemaniaHDD]
    Language                    : Spanish
    Service kind                : Complete Main
    Default                     : No
    Forced                      : No

    Audio #3
    ID                          : 4
    Format                      : E-AC-3
    Format/Info                 : Enhanced AC-3
    Commercial name             : Dolby Digital Plus
    Codec ID                    : A_EAC3
    Duration                    : 25 min 37 s
    Bit rate mode               : Constant
    Bit rate                    : 640 kb/s
    Channel(s)                  : 6 channels
    Channel layout              : L R C LFE Ls Rs
    Sampling rate               : 48.0 kHz
    Frame rate                  : 31.250 FPS (1536 SPF)
    Compression mode            : Lossy
    Stream size                 : 117 MiB (6%)
    Title                       : Inglés [CinemaniaHDD]
    Language                    : English
    Service kind                : Complete Main
    Default                     : No
    Forced                      : No

    Text #1
    ID                          : 5
    Format                      : UTF-8
    Codec ID                    : S_TEXT/UTF8
    Codec ID/Info               : UTF-8 Plain Text
    Duration                    : 9 min 34 s
    Bit rate                    : 2 b/s
    Count of elements           : 5
    Stream size                 : 146 Bytes (0%)
    Title                       : Forzados [CinemaniaHDD]
    Language                    : Spanish
    Default                     : No
    Forced                      : Yes

    Text #2
    ID                          : 6
    Format                      : UTF-8
    Codec ID                    : S_TEXT/UTF8
    Codec ID/Info               : UTF-8 Plain Text
    Duration                    : 24 min 12 s
    Bit rate                    : 45 b/s
    Count of elements           : 286
    Stream size                 : 8.10 KiB (0%)
    Title                       : Español latino [CinemaniaHDD]
    Language                    : Spanish
    Default                     : No
    Forced                      : No

    Text #3
    ID                          : 7
    Format                      : UTF-8
    Codec ID                    : S_TEXT/UTF8
    Codec ID/Info               : UTF-8 Plain Text
    Duration                    : 23 min 31 s
    Bit rate                    : 57 b/s
    Count of elements           : 365
    Stream size                 : 9.98 KiB (0%)
    Title                       : Inglés [CinemaniaHDD]
    Language                    : English
    Default                     : No
    Forced                      : No

     

  • Peso: 1.79 GiB Aprox ---- 11 GiB in 6 Chapters.

Sinopsis

En este drama de comedia oscura del galardonado escritor Jez Butterworth, las revelaciones y los secretos salen a la luz a medida que exponen la complejidad del matrimonio moderno y la fidelidad. En un mundo de ocho mil millones, ¿qué sucede cuando encontramos a ‘el indicado’? ¿Podemos mantenernos fieles a las promesas que nos esforzamos por cumplir cuando, después de todo, ¿no somos MAMÍFEROS?

Ficha técnica

Video trailer de la película

Enlaces de descarga

Rip de Bluray

Descargar Mammals (2022) Primera Temporada AMZN WEB.DL




Aportes de DPeliculasHDmega la pass es:dpeliculashdmega.org Aportes de CinemaniaHD la pass es:cinemaniahdd.com
Guardado en : Comedia , Drama , Series

Películas relacionadas

descargar Mammals (2022) Primera Temporada AMZN WEB.DL 1080p 1080p gratis, Mammals (2022) Primera Temporada AMZN WEB.DL 1080p mega 1 link, Mammals (2022) Primera Temporada AMZN WEB.DL 1080p serie completa, descargar Mammals (2022) Primera Temporada AMZN WEB.DL 1080p gratis en mega.

Mammals (2022) Primera Temporada AMZN WEB.DL pelicula full hd, Mammals (2022) Primera Temporada AMZN WEB.DL mega latino, Mammals (2022) Primera Temporada AMZN WEB.DL 4k latino, Mammals (2022) Primera Temporada AMZN WEB.DL pelicula completa, Mammals (2022) Primera Temporada AMZN WEB.DL descargar gratis, descargar Mammals (2022) Primera Temporada AMZN WEB.DL pelicula latino, Mammals (2022) Primera Temporada AMZN WEB.DL 1 link mega, Mammals (2022) Primera Temporada AMZN WEB.DL 1 link google drive, Mammals (2022) Primera Temporada AMZN WEB.DL hd 1080p latino.
Comentarios 0