Mamma Mia! Vamos otra vez (2018) Full 1080p Latino

949 vistas
1 estrella2 estrellas3 estrellas4 estrellas5 estrellas (Ninguna valoración todavía)
Cargando…

Información de Mamma Mia! Vamos otra vez (2018) Full 1080p Latino

Datos de la película

  • Calidad: Full 1080p
  • Audio: Español Latino AC3 5.1 BLURAY - Ingles AC3 5.1 BLURAY
  • Subtitulos: Español Latino PGS - Ingles PGS
  • Resolución: 1920x1080p
  • Formato: MKV
  • Codec: H.264
  • Encoder: Dracarys
  • Mediainfo: Clic para Mostrar Datos Ver
  • Format                                   : Matroska
    Format version                           : Version 4 / Version 2
    File size                                : 6.92 GiB
    Duration                                 : 1 h 53 min
    Overall bit rate                         : 8 715 kb/s
    Movie name                               : CinemaniaHDD.net
    Encoded date                             : UTC 2018-10-21 21:22:47 / UTC 2018-10-21T06:30:26Z
    Writing application                      : mkvmerge v15.0.0 ('Duel with the Devil') 64-bit
    Writing library                          : libebml v1.3.5 + libmatroska v1.4.5 / Lavf57.7.2

    Video
    ID                                       : 1
    Format                                   : AVC
    Format/Info                              : Advanced Video Codec
    Format profile                           : [email protected]
    Format settings                          : CABAC / 4 Ref Frames
    Format settings, CABAC                   : Yes
    Format settings, RefFrames               : 4 frames
    Codec ID                                 : V_MPEG4/ISO/AVC
    Duration                                 : 1 h 53 min
    Bit rate                                 : 7 646 kb/s
    Width                                    : 1 920 pixels
    Height                                   : 1 080 pixels
    Display aspect ratio                     : 16:9
    Frame rate mode                          : Constant
    Frame rate                               : 23.976 (24000/1001) FPS
    Color space                              : YUV
    Chroma subsampling                       : 4:2:0
    Bit depth                                : 8 bits
    Scan type                                : Progressive
    Bits/(Pixel*Frame)                       : 0.154
    Stream size                              : 6.07 GiB (88%)
    Writing library                          : x264 core 148 r2708 86b7198
    Encoding settings                        : cabac=1 / ref=4 / deblock=1:0:0 / analyse=0x3:0x133 / me=esa / subme=10 / psy=1 / psy_rd=1.00:0.00 / mixed_ref=1 / me_range=24 / chroma_me=1 / trellis=2 / 8x8dct=1 / cqm=0 / deadzone=21,11 / fast_pskip=1 / chroma_qp_offset=-2 / threads=34 / lookahead_threads=5 / sliced_threads=0 / nr=0 / decimate=1 / interlaced=0 / bluray_compat=0 / constrained_intra=0 / bframes=8 / b_pyramid=2 / b_adapt=2 / b_bias=0 / direct=3 / weightb=1 / open_gop=0 / weightp=2 / keyint=240 / keyint_min=24 / scenecut=40 / intra_refresh=0 / rc_lookahead=60 / rc=crf / mbtree=1 / crf=20.0 / qcomp=0.60 / qpmin=0 / qpmax=69 / qpstep=4 / vbv_maxrate=62500 / vbv_bufsize=78125 / crf_max=0.0 / nal_hrd=none / filler=0 / ip_ratio=1.40 / aq=1:1.00
    Language                                 : English
    Default                                  : Yes
    Forced                                   : No
    Color range                              : Limited
    Color primaries                          : BT.709
    Transfer characteristics                 : BT.709
    Matrix coefficients                      : BT.709
    Statistics Tags Issue                    : mkvmerge v15.0.0 ('Duel with the Devil') 64-bit 2018-10-21 21:22:47 / mkvmerge v15.0.0 ('Duel with the Devil') 64-bit 2018-10-21 21:22:47 / UTC 2018-10-21T06:30:26Z
    FromStats_BitRate                        : 7787617
    FromStats_Duration                       : 01:53:39.688000000
    FromStats_FrameCount                     : 163509
    FromStats_StreamSize                     : 6638640046

    Audio #1
    ID                                       : 2
    Format                                   : AC-3
    Format/Info                              : Audio Coding 3
    Format settings, Endianness              : Big
    Codec ID                                 : A_EAC3
    Duration                                 : 1 h 53 min
    Bit rate mode                            : Constant
    Bit rate                                 : 448 kb/s
    Channel(s)                               : 6 channels
    Channel positions                        : Front: L C R, Side: L R, LFE
    Sampling rate                            : 48.0 kHz
    Frame rate                               : 31.250 FPS (1536 SPF)
    Bit depth                                : 16 bits
    Compression mode                         : Lossy
    Stream size                              : 364 MiB (5%)
    Language                                 : Spanish
    Service kind                             : Complete Main
    Default                                  : Yes
    Forced                                   : No
    Statistics Tags Issue                    : mkvmerge v15.0.0 ('Duel with the Devil') 64-bit 2018-10-21 21:22:47 / mkvmerge v15.0.0 ('Duel with the Devil') 64-bit 2018-10-21 21:22:47 / UTC 2018-10-21T06:30:26Z
    FromStats_BitRate                        : 448000
    FromStats_Duration                       : 01:53:39.712000000
    FromStats_FrameCount                     : 213116
    FromStats_StreamSize                     : 381903872

    Audio #2
    ID                                       : 3
    Format                                   : AC-3
    Format/Info                              : Audio Coding 3
    Format settings, Endianness              : Big
    Codec ID                                 : A_AC3
    Duration                                 : 1 h 53 min
    Bit rate mode                            : Constant
    Bit rate                                 : 448 kb/s
    Channel(s)                               : 6 channels
    Channel positions                        : Front: L C R, Side: L R, LFE
    Sampling rate                            : 48.0 kHz
    Frame rate                               : 31.250 FPS (1536 SPF)
    Bit depth                                : 16 bits
    Compression mode                         : Lossy
    Stream size                              : 364 MiB (5%)
    Language                                 : English
    Service kind                             : Complete Main
    Default                                  : No
    Forced                                   : No
    Statistics Tags Issue                    : mkvmerge v15.0.0 ('Duel with the Devil') 64-bit 2018-10-21 21:22:47 / mkvmerge v15.0.0 ('Duel with the Devil') 64-bit 2018-10-21 21:22:47 / UTC 2018-10-21T06:30:26Z
    FromStats_BitRate                        : 448000
    FromStats_Duration                       : 01:53:39.712000000
    FromStats_FrameCount                     : 213116
    FromStats_StreamSize                     : 381903872

    Text #1
    ID                                       : 4
    Format                                   : PGS
    Muxing mode                              : zlib
    Codec ID                                 : S_HDMV/PGS
    Codec ID/Info                            : Picture based subtitle format used on BDs/HD-DVDs
    Language                                 : English
    Default                                  : No
    Forced                                   : No
    Statistics Tags Issue                    : mkvmerge v15.0.0 ('Duel with the Devil') 64-bit 2018-10-21 21:22:47 / mkvmerge v15.0.0 ('Duel with the Devil') 64-bit 2018-10-21 21:22:47 / UTC 2018-10-21T06:30:26Z
    FromStats_BitRate                        : 45471
    FromStats_Duration                       : 01:52:33.163000000
    FromStats_FrameCount                     : 3502
    FromStats_StreamSize                     : 38384575

    Text #2
    ID                                       : 5
    Format                                   : PGS
    Muxing mode                              : zlib
    Codec ID                                 : S_HDMV/PGS
    Codec ID/Info                            : Picture based subtitle format used on BDs/HD-DVDs
    Language                                 : Spanish
    Default                                  : No
    Forced                                   : No
    Statistics Tags Issue                    : mkvmerge v15.0.0 ('Duel with the Devil') 64-bit 2018-10-21 21:22:47 / mkvmerge v15.0.0 ('Duel with the Devil') 64-bit 2018-10-21 21:22:47 / UTC 2018-10-21T06:30:26Z
    FromStats_BitRate                        : 36439
    FromStats_Duration                       : 01:52:34.414000000
    FromStats_FrameCount                     : 3008
    FromStats_StreamSize                     : 30765977

    Text #3
    ID                                       : 6
    Format                                   : PGS
    Muxing mode                              : zlib
    Codec ID                                 : S_HDMV/PGS
    Codec ID/Info                            : Picture based subtitle format used on BDs/HD-DVDs
    Title                                    : Forzados
    Language                                 : Spanish
    Default                                  : Yes
    Forced                                   : No
    Statistics Tags Issue                    : mkvmerge v15.0.0 ('Duel with the Devil') 64-bit 2018-10-21 21:22:47 / mkvmerge v15.0.0 ('Duel with the Devil') 64-bit 2018-10-21 21:22:47 / UTC 2018-10-21T06:30:26Z
    FromStats_BitRate                        : 12794
    FromStats_Duration                       : 01:52:34.414000000
    FromStats_FrameCount                     : 1016
    FromStats_StreamSize                     : 10802812

    Menu
    00:00:00.000                             : :Chapter 1
    00:02:59.805                             : :Chapter 2
    00:09:08.798                             : :Chapter 3
    00:16:41.000                             : :Chapter 4
    00:24:23.712                             : :Chapter 5
    00:26:55.030                             : :Chapter 6
    00:34:58.888                             : :Chapter 7
    00:39:13.476                             : :Chapter 8
    00:43:47.500                             : :Chapter 9
    00:50:27.358                             : :Chapter 10
    00:53:26.870                             : :Chapter 11
    00:58:31.675                             : :Chapter 12
    01:04:52.389                             : :Chapter 13
    01:15:11.298                             : :Chapter 14
    01:24:53.046                             : :Chapter 15
    01:27:04.511                             : :Chapter 16
    01:28:58.917                             : :Chapter 17
    01:33:01.785                             : :Chapter 18
    01:37:19.250                             : :Chapter 19
    01:43:09.517                             : :Chapter 20

     

  • Peso: 6.92 GiB

Sinopsis

Esta segunda entrega cuenta la historia de cómo se conocieron los personajes de la primera película en ese mágico verano, a la vez que narra sus vidas en el presente. Los miembros del reparto original vuelven a ponerse en la piel de sus personajes: la oscarizada Meryl Streep como Donna; Julie Walters como Rosie, y Christine Baranski como Tanya. Amanda Seyfried y Dominic Cooper vuelven a formar pareja como Sophie y Sky. Pierce Brosnan, Stellan Skarsgård y el oscarizado Colin Firth retoman los papeles de Sam, Bill y Harry respectivamente, los tres posibles padres de Sophie

Ficha técnica

Video trailer de la película

Enlaces de descarga

Rip de Bluray

Descargar Mamma Mia! Vamos otra vez (2018) Full 1080p Latino




Aportes de DPeliculasHDmega la pass es:dpeliculashdmega.org Aportes de CinemaniaHD la pass es:cinemaniahdd.com

Películas relacionadas

  • Yucatán (2018) NF WEB-DL 1080p Castellano

    2018
    Yucatán (2018) NF WEB-DL 1080p Castellano

    0.0 2h 10m 2018

    Lucas (Luis Tosar) y Clayderman (Rodrigo de la Serna) son dos estafadores que se dedican a timar a turistas...

    Director: Daniel Monzón

    Género: Castellano

    Actores: Xavier Lite

  • The Front Runner (2018) Full 1080p Latino

    2018
    The Front Runner (2018) Full 1080p Latino

    0.0 1h 53m 2018

    Narra la campaña presidencial del senador estadounidense Gary Hart, que tuvo lugar en 1988, momento...

    Director: Jason Reitman

    Género: Drama

    Actores: William Walker

  • Robin Hood orígenes (2018) Full 1080p Latino

    2018
    Robin Hood orígenes (2018) Full 1080p Latino

    0.0 1h 56m 2018

    Cuando el joven Robin Hood (Taron Egerton) regresa a su hogar, endurecido, tras luchar como guerrero...

    Director: Otto Bathurst

    Género: Acción

    Actores: Yasen Atour

  • Overlord (2018) Full HD 1080p Latino

    2018
    Overlord (2018) Full HD 1080p Latino

    0.0 1h 50m 2018

    Segunda Guerra Mundial. En la víspera del Día D, dos paracaidistas estadounidenses tienen una misión...

    Director: Julius Avery

    Género: Acción

    Actores: Wyatt Russell

Comentarios 0