Mamma Mia: Una y otra vez (2018) 1080p Latino

910 vistas
1 estrella2 estrellas3 estrellas4 estrellas5 estrellas (3 votos, promedio: 3,67 de 5)
Cargando…

Información de Mamma Mia: Una y otra vez (2018) 1080p Latino

Datos de la película

  • Calidad: 1080p
  • Audio: Español Latino AC3 5.1 DVD - Ingles AC3 5.1 BLURAY
  • Subtitulos: Español Latino SRT- FORZADOS SRT
  • Resolución: 1920x800p
  • Formato: MKV
  • Codec: H.264
  • Encoder: CinefiloCool
  • Mediainfo: Clic para Mostrar Datos Ver
  • Mamma Mía! Vamos otra vez (2018) 1080p Latino.mkv
    Format                      : Matroska
    Format version              : Version 4 / Version 2
    File size                   : 3.42 GiB
    Duration                    : 1 h 53 min
    Overall bit rate            : 4 308 kb/s
    Movie name                  : CinemaniaHDD.Net
    Encoded date                : UTC 2018-10-13 04:04:25 / UTC 2018-10-13T01:48:02Z
    Writing application         : mkvmerge v25.0.0 ('Prog Noir') 64-bit
    Writing library             : libebml v1.3.6 + libmatroska v1.4.9 / Lavf57.7.2

    Video
    ID                          : 1
    Format                      : AVC
    Format/Info                 : Advanced Video Codec
    Format profile              : High@L4.1
    Format settings             : CABAC / 5 Ref Frames
    Format settings, CABAC      : Yes
    Format settings, RefFrames  : 5 frames
    Codec ID                    : V_MPEG4/ISO/AVC
    Duration                    : 1 h 53 min
    Bit rate                    : 3 500 kb/s
    Width                       : 1 920 pixels
    Height                      : 800 pixels
    Display aspect ratio        : 2.40:1
    Frame rate mode             : Constant
    Frame rate                  : 23.976 (24000/1001) FPS
    Color space                 : YUV
    Chroma subsampling          : 4:2:0
    Bit depth                   : 8 bits
    Scan type                   : Progressive
    Bits/(Pixel*Frame)          : 0.095
    Stream size                 : 2.69 GiB (79%)
    Title                       : HD1080p [Bluray]
    Writing library             : x264 core 155 r2893 b00bcaf
    Encoding settings           : cabac=1 / ref=5 / deblock=1:0:0 / analyse=0x3:0x113 / me=hex / subme=8 / psy=1 / psy_rd=1.00:0.00 / mixed_ref=1 / me_range=16 / chroma_me=1 / trellis=2 / 8x8dct=1 / cqm=0 / deadzone=21,11 / fast_pskip=1 / chroma_qp_offset=-2 / threads=25 / lookahead_threads=4 / sliced_threads=0 / nr=0 / decimate=1 / interlaced=0 / bluray_compat=0 / constrained_intra=0 / bframes=3 / b_pyramid=2 / b_adapt=1 / b_bias=0 / direct=3 / weightb=1 / open_gop=0 / weightp=2 / keyint=240 / keyint_min=24 / scenecut=40 / intra_refresh=0 / rc_lookahead=50 / rc=abr / mbtree=1 / bitrate=3500 / ratetol=1.0 / qcomp=0.60 / qpmin=0 / qpmax=69 / qpstep=4 / vbv_maxrate=62500 / vbv_bufsize=78125 / nal_hrd=none / filler=0 / ip_ratio=1.40 / aq=1:1.00
    Default                     : Yes
    Forced                      : No
    Color range                 : Limited
    Color primaries             : BT.709
    Transfer characteristics    : BT.709
    Matrix coefficients         : BT.709
    Statistics Tags Issue       : mkvmerge v25.0.0 ('Prog Noir') 64-bit 2018-10-13 04:04:25 / mkvmerge v25.0.0 ('Prog Noir') 64-bit 2018-10-13 04:04:25 / UTC 2018-10-13T01:48:02Z
    FromStats_BitRate           : 3473299
    FromStats_Duration          : 01:53:39.688000000
    FromStats_FrameCount        : 163509
    FromStats_StreamSize        : 2960852573

    Audio #1
    ID                          : 2
    Format                      : AC-3
    Format/Info                 : Audio Coding 3
    Format settings, Endianness : Big
    Codec ID                    : A_AC3
    Duration                    : 1 h 53 min
    Bit rate mode               : Constant
    Bit rate                    : 384 kb/s
    Channel(s)                  : 6 channels
    Channel positions           : Front: L C R, Side: L R, LFE
    Sampling rate               : 48.0 kHz
    Frame rate                  : 31.250 FPS (1536 SPF)
    Bit depth                   : 16 bits
    Compression mode            : Lossy
    Delay relative to video     : 15 ms
    Stream size                 : 312 MiB (9%)
    Title                       : AC3_5.1_DVD_Esp
    Language                    : Spanish
    Service kind                : Complete Main
    Default                     : Yes
    Forced                      : No
    Statistics Tags Issue       : mkvmerge v25.0.0 ('Prog Noir') 64-bit 2018-10-13 04:04:25 / mkvmerge v25.0.0 ('Prog Noir') 64-bit 2018-10-13 04:04:25 / UTC 2018-10-13T01:48:02Z
    FromStats_BitRate           : 384000
    FromStats_Duration          : 01:53:39.648000000
    FromStats_FrameCount        : 213114
    FromStats_StreamSize        : 327343104

    Audio #2
    ID                          : 3
    Format                      : AC-3
    Format/Info                 : Audio Coding 3
    Format settings, Endianness : Big
    Codec ID                    : A_AC3
    Duration                    : 1 h 53 min
    Bit rate mode               : Constant
    Bit rate                    : 448 kb/s
    Channel(s)                  : 6 channels
    Channel positions           : Front: L C R, Side: L R, LFE
    Sampling rate               : 48.0 kHz
    Frame rate                  : 31.250 FPS (1536 SPF)
    Bit depth                   : 16 bits
    Compression mode            : Lossy
    Stream size                 : 364 MiB (10%)
    Title                       : AC3_5.1_Bluray_Eng
    Language                    : English
    Service kind                : Complete Main
    Default                     : No
    Forced                      : No
    Statistics Tags Issue       : mkvmerge v25.0.0 ('Prog Noir') 64-bit 2018-10-13 04:04:25 / mkvmerge v25.0.0 ('Prog Noir') 64-bit 2018-10-13 04:04:25 / UTC 2018-10-13T01:48:02Z
    FromStats_BitRate           : 448000
    FromStats_Duration          : 01:53:39.712000000
    FromStats_FrameCount        : 213116
    FromStats_StreamSize        : 381903872

    Text #1
    ID                          : 4
    Format                      : UTF-8
    Codec ID                    : S_TEXT/UTF8
    Codec ID/Info               : UTF-8 Plain Text
    Title                       : Sub_Forzados
    Language                    : Spanish
    Default                     : Yes
    Forced                      : Yes
    Statistics Tags Issue       : mkvmerge v25.0.0 ('Prog Noir') 64-bit 2018-10-13 04:04:25 / mkvmerge v25.0.0 ('Prog Noir') 64-bit 2018-10-13 04:04:25 / UTC 2018-10-13T01:48:02Z
    FromStats_BitRate           : 22
    FromStats_Duration          : 01:52:10.398000000
    FromStats_FrameCount        : 504
    FromStats_StreamSize        : 18526

    Text #2
    ID                          : 5
    Format                      : UTF-8
    Codec ID                    : S_TEXT/UTF8
    Codec ID/Info               : UTF-8 Plain Text
    Title                       : Sub_Esp
    Language                    : Spanish
    Default                     : No
    Forced                      : No
    Statistics Tags Issue       : mkvmerge v25.0.0 ('Prog Noir') 64-bit 2018-10-13 04:04:25 / mkvmerge v25.0.0 ('Prog Noir') 64-bit 2018-10-13 04:04:25 / UTC 2018-10-13T01:48:02Z
    FromStats_BitRate           : 60
    FromStats_Duration          : 01:52:13.067000000
    FromStats_FrameCount        : 1502
    FromStats_StreamSize        : 51132

    Text #3
    ID                          : 6
    Format                      : UTF-8
    Codec ID                    : S_TEXT/UTF8
    Codec ID/Info               : UTF-8 Plain Text
    Title                       : Sub_Eng
    Language                    : English
    Default                     : No
    Forced                      : No
    Statistics Tags Issue       : mkvmerge v25.0.0 ('Prog Noir') 64-bit 2018-10-13 04:04:25 / mkvmerge v25.0.0 ('Prog Noir') 64-bit 2018-10-13 04:04:25 / UTC 2018-10-13T01:48:02Z
    FromStats_BitRate           : 68
    FromStats_Duration          : 01:52:15.443000000
    FromStats_FrameCount        : 1949
    FromStats_StreamSize        : 57529

  • Peso: 3.41 GiB

Sinopsis

Descargar Mamma Mia: Una y otra vez (2018) 1080p Latino gratis; Mega, google Drive. Esta segunda entrega cuenta la historia de cómo se conocieron los personajes de la primera película en ese mágico verano, a la vez que narra sus vidas en el presente. Los miembros del reparto original vuelven a ponerse en la piel de sus personajes: la oscarizada Meryl Streep como Donna; Julie Walters como Rosie, y Christine Baranski como Tanya. Amanda Seyfried y Dominic Cooper vuelven a formar pareja como Sophie y Sky. Pierce Brosnan, Stellan Skarsgård y el oscarizado Colin Firth retoman los papeles de Sam, Bill y Harry respectivamente, los tres posibles padres de Sophie.

Ficha técnica

  • Titulo original: Mamma Mia! Here We Go Again
  • Fecha de lanzamiento: 18-07-2018 (United Kingdom, United States of America)
  • Director: Ol Parker
  • Género: Comedia, HD 1080p, Música, Romance
  • Puntuación: 3.7 3 votos
  • Duración:
    2h 0m

Video trailer de la película

Enlaces de descarga

Rip de Bluray

Descargar Mamma Mia: Una y otra vez (2018) 1080p Latino




Aportes de DPeliculasHDmega la pass es:dpeliculashdmega.org Aportes de CinemaniaHD la pass es:cinemaniahdd.com
Guardado en : Comedia , HD 1080p , Música , Romance

Películas relacionadas

  • El Jefe de la Mafia: Gotti (2018) 1080p Latino

    2018
    El Jefe de la Mafia: Gotti (2018) 1080p Latino

    1.0 1h 50m 2018

    Descargar El Jefe de la Mafia: Gotti (2018) 1080p Latino, Mega, Google Drive. Biopic del famoso mafioso...

    Director: S. B. Weathersby

    Género: Crimen

    Actores: William DeMeo

  • El final del viaje (2018) 1080p Latino

    2018
    El final del viaje (2018) 1080p Latino

    1.0 1h 48m 2018

    Descargar El final del viaje (2018) 1080p Latino, Mega, Google Drive. Un grupo de soldados británicos...

    Director: Saul Dibb

    Género: Bélica

    Actores: Tom Sturridge

  • Mision: Imposible 2 (2000) 1080p Latino

    2000
    Mision: Imposible 2 (2000) 1080p Latino

    1.0 2h 3m 2000

    Descargar Mision: Imposible 2 (2000) 1080p Latino, Mega, Google Drive. El agente especial Ethan Hunt...

    Director: William H. Burton Jr.

    Género: Acción

    Actores: William Mapother

  • Mision: Imposible (1996) 1080p Latino

    1996
    Mision: Imposible (1996) 1080p Latino

    1.0 1h 50m 1996

    Mission: Impossible (1996) 1080p Latino, Mega, Google Drive. Ethan Hunt es un superespía capaz de resolver...

    Director: Nick Moore

    Género: Acción

    Actores: Ving Rhames

  • La piel fria (2017) 1080p Latino

    2017
    La piel fria (2017) 1080p Latino

    0.0 1h 41m 2017

    En una isla perdida en medio del océano, dos hombres se defienden, noche tras noche, resguardados en...

    Director: Xavier Gens

    Género: Ciencia ficción

    Actores: Winslow Iwaki

Comentarios 0