Mamma Mia! La película (2008) 1080p Latino

1.514 vistas
1 estrella2 estrellas3 estrellas4 estrellas5 estrellas (1 votos, promedio: 5,00 de 5)
Cargando…

Información de Mamma Mia! La película (2008) 1080p Latino

Datos de la película

  • Calidad: 1080p
  • Audio: Español Latino AC3 5.1 BLURAY - Ingles AC3 5.1 BLURAY
  • Subtitulos: Español Latino SRT- FORZADOS SRT
  • Resolución: 1920x800p
  • Formato: MKV
  • Codec: H.264
  • Encoder: CinefiloCool
  • Mediainfo: Clic para Mostrar Datos Ver
  • Mamma Mia! (2008) 1080p Latino.mkv
    Format                      : Matroska
    Format version              : Version 4 / Version 2
    File size                   : 3.34 GiB
    Duration                    : 1 h 48 min
    Overall bit rate            : 4 392 kb/s
    Movie name                  : CinemaniaHDD.Net
    Encoded date                : UTC 2018-10-14 02:12:44 / UTC 2018-10-13T18:52:02Z
    Writing application         : mkvmerge v25.0.0 ('Prog Noir') 64-bit
    Writing library             : libebml v1.3.6 + libmatroska v1.4.9 / Lavf57.7.2

    Video
    ID                          : 1
    Format                      : AVC
    Format/Info                 : Advanced Video Codec
    Format profile              : [email protected]
    Format settings             : CABAC / 5 Ref Frames
    Format settings, CABAC      : Yes
    Format settings, RefFrames  : 5 frames
    Codec ID                    : V_MPEG4/ISO/AVC
    Duration                    : 1 h 48 min
    Bit rate                    : 3 500 kb/s
    Width                       : 1 920 pixels
    Height                      : 800 pixels
    Display aspect ratio        : 2.40:1
    Frame rate mode             : Constant
    Frame rate                  : 23.976 (24000/1001) FPS
    Color space                 : YUV
    Chroma subsampling          : 4:2:0
    Bit depth                   : 8 bits
    Scan type                   : Progressive
    Bits/(Pixel*Frame)          : 0.095
    Stream size                 : 2.59 GiB (78%)
    Title                       : HD1080p [Bluray]
    Writing library             : x264 core 155 r2893 b00bcaf
    Encoding settings           : cabac=1 / ref=5 / deblock=1:0:0 / analyse=0x3:0x133 / me=umh / subme=9 / psy=1 / psy_rd=1.00:0.00 / mixed_ref=1 / me_range=16 / chroma_me=1 / trellis=2 / 8x8dct=1 / cqm=0 / deadzone=21,11 / fast_pskip=1 / chroma_qp_offset=-2 / threads=25 / lookahead_threads=2 / sliced_threads=0 / nr=0 / decimate=1 / interlaced=0 / bluray_compat=0 / constrained_intra=0 / bframes=3 / b_pyramid=2 / b_adapt=2 / b_bias=0 / direct=3 / weightb=1 / open_gop=0 / weightp=2 / keyint=240 / keyint_min=24 / scenecut=40 / intra_refresh=0 / rc_lookahead=60 / rc=2pass / mbtree=1 / bitrate=3500 / ratetol=1.0 / qcomp=0.60 / qpmin=0 / qpmax=69 / qpstep=4 / cplxblur=20.0 / qblur=0.5 / vbv_maxrate=62500 / vbv_bufsize=78125 / nal_hrd=none / filler=0 / ip_ratio=1.40 / aq=1:1.00
    Default                     : Yes
    Forced                      : No
    Color range                 : Limited
    Color primaries             : BT.709
    Transfer characteristics    : BT.709
    Matrix coefficients         : BT.709
    Statistics Tags Issue       : mkvmerge v25.0.0 ('Prog Noir') 64-bit 2018-10-14 02:12:44 / mkvmerge v25.0.0 ('Prog Noir') 64-bit 2018-10-14 02:12:44 / UTC 2018-10-13T18:52:02Z
    FromStats_BitRate           : 3499664
    FromStats_Duration          : 01:48:38.054000000
    FromStats_FrameCount        : 156277
    FromStats_StreamSize        : 2851375564

    Audio #1
    ID                          : 2
    Format                      : AC-3
    Format/Info                 : Audio Coding 3
    Format settings, Endianness : Big
    Codec ID                    : A_AC3
    Duration                    : 1 h 48 min
    Bit rate mode               : Constant
    Bit rate                    : 448 kb/s
    Channel(s)                  : 6 channels
    Channel positions           : Front: L C R, Side: L R, LFE
    Sampling rate               : 48.0 kHz
    Frame rate                  : 31.250 FPS (1536 SPF)
    Bit depth                   : 16 bits
    Compression mode            : Lossy
    Delay relative to video     : -5 ms
    Stream size                 : 349 MiB (10%)
    Title                       : AC3_5.1_Bluray_Esp
    Language                    : Spanish
    Service kind                : Complete Main
    Default                     : Yes
    Forced                      : No
    Statistics Tags Issue       : mkvmerge v25.0.0 ('Prog Noir') 64-bit 2018-10-14 02:12:44 / mkvmerge v25.0.0 ('Prog Noir') 64-bit 2018-10-14 02:12:44 / UTC 2018-10-13T18:52:02Z
    FromStats_BitRate           : 448000
    FromStats_Duration          : 01:48:47.520000000
    FromStats_FrameCount        : 203985
    FromStats_StreamSize        : 365541120

    Audio #2
    ID                          : 3
    Format                      : AC-3
    Format/Info                 : Audio Coding 3
    Format settings, Endianness : Big
    Codec ID                    : A_AC3
    Duration                    : 1 h 48 min
    Bit rate mode               : Constant
    Bit rate                    : 448 kb/s
    Channel(s)                  : 6 channels
    Channel positions           : Front: L C R, Side: L R, LFE
    Sampling rate               : 48.0 kHz
    Frame rate                  : 31.250 FPS (1536 SPF)
    Bit depth                   : 16 bits
    Compression mode            : Lossy
    Stream size                 : 349 MiB (10%)
    Title                       : AC3_5.1_Bluray_Eng
    Language                    : English
    Service kind                : Complete Main
    Default                     : No
    Forced                      : No
    Statistics Tags Issue       : mkvmerge v25.0.0 ('Prog Noir') 64-bit 2018-10-14 02:12:44 / mkvmerge v25.0.0 ('Prog Noir') 64-bit 2018-10-14 02:12:44 / UTC 2018-10-13T18:52:02Z
    FromStats_BitRate           : 448000
    FromStats_Duration          : 01:48:38.144000000
    FromStats_FrameCount        : 203692
    FromStats_StreamSize        : 365016064

    Text #1
    ID                          : 4
    Format                      : UTF-8
    Codec ID                    : S_TEXT/UTF8
    Codec ID/Info               : UTF-8 Plain Text
    Title                       : Sub_Forzados
    Language                    : Spanish
    Default                     : Yes
    Forced                      : Yes
    Statistics Tags Issue       : mkvmerge v25.0.0 ('Prog Noir') 64-bit 2018-10-14 02:12:44 / mkvmerge v25.0.0 ('Prog Noir') 64-bit 2018-10-14 02:12:44 / UTC 2018-10-13T18:52:02Z
    FromStats_BitRate           : 24
    FromStats_Duration          : 01:42:26.772000000
    FromStats_FrameCount        : 656
    FromStats_StreamSize        : 18737

    Text #2
    ID                          : 5
    Format                      : UTF-8
    Codec ID                    : S_TEXT/UTF8
    Codec ID/Info               : UTF-8 Plain Text
    Title                       : Sub_Esp
    Language                    : Spanish
    Default                     : No
    Forced                      : No
    Statistics Tags Issue       : mkvmerge v25.0.0 ('Prog Noir') 64-bit 2018-10-14 02:12:44 / mkvmerge v25.0.0 ('Prog Noir') 64-bit 2018-10-14 02:12:44 / UTC 2018-10-13T18:52:02Z
    FromStats_BitRate           : 71
    FromStats_Duration          : 01:42:26.772000000
    FromStats_FrameCount        : 1528
    FromStats_StreamSize        : 54816

    Text #3
    ID                          : 6
    Format                      : UTF-8
    Codec ID                    : S_TEXT/UTF8
    Codec ID/Info               : UTF-8 Plain Text
    Title                       : Sub_Eng
    Language                    : English
    Default                     : No
    Forced                      : No
    Statistics Tags Issue       : mkvmerge v25.0.0 ('Prog Noir') 64-bit 2018-10-14 02:12:44 / mkvmerge v25.0.0 ('Prog Noir') 64-bit 2018-10-14 02:12:44 / UTC 2018-10-13T18:52:02Z
    FromStats_BitRate           : 70
    FromStats_Duration          : 01:42:26.765000000
    FromStats_FrameCount        : 1539
    FromStats_StreamSize        : 54191

    Menu
    00:00:00.000                : :00:00:00.000
    00:04:37.986                : :00:04:37.903
    00:14:51.099                : :00:14:51.099
    00:25:44.084                : :00:25:44.084
    00:30:39.379                : :00:30:39.379
    00:35:26.333                : :00:35:26.333
    00:40:25.131                : :00:40:25.131
    00:44:36.382                : :00:44:36.382
    00:47:49.909                : :00:47:49.909
    00:51:19.118                : :00:51:19.118
    00:56:27.676                : :00:56:27.676
    01:04:03.298                : :01:04:03.298
    01:08:05.373                : :01:08:05.373
    01:14:43.646                : :01:14:43.646
    01:20:18.689                : :01:20:18.689
    01:29:58.852                : :01:29:58.852
    01:32:18.700                : :01:32:18.700
    01:34:13.606                : :01:34:13.606
    01:39:12.613                : :01:39:12.613
    01:43:40.339                : :01:43:40.339

  • Peso: 3.34 GiB

Sinopsis

Descargar Mamma Mia! La película (2008) 1080p Latino; Mega, Google Drive. Versión cinematográfica del popular musical de ABBA. Amanda Seyfried interpreta a una joven que ha crecido en una pequeña isla griega, educada por una madre, rebelde en su juventud, que siempre se ha negado a revelar a su hija la identida de su padre. Cuando parece que al final la joven va a descubrir quién es su padre… aparecen nada menos que tres posibles candidatos.

Ficha técnica

Video trailer de la película

Enlaces de descarga

Rip de Bluray

Descargar Mamma Mia! La película (2008) 1080p Latino




Aportes de DPeliculasHDmega la pass es:dpeliculashdmega.org Aportes de CinemaniaHD la pass es:cinemaniahdd.com
Guardado en : Comedia , HD 1080p , Romance

Películas relacionadas

  • El secreto de mi éxito (1987) REMUX 1080p Latino

    1987
    El secreto de mi éxito (1987) REMUX 1080p Latino

    0.0 1h 40m 1987

    Brantley Foster, un educado chico de Arkansas que acaba de licenciarse, ha soñado siempre con triunfar...

    Director: Herbert Ross

    Género: Comedia

    Actores: Richard Jordan

  • Samantha! (2019) Temporada 1 y 2 NF 1080p Latino

    2018
    Samantha! (2019) Temporada 1 y 2 NF 1080p Latino

    0.0 0h 28m 2018

    Samantha, una estrella infantil en la década de los 80, se aferra a los límites de la celebridad con...

    Director: Felipe Braga

    Género: Comedia

    Actores: Sidney Alexandre

  • Someone Great (2019) NF 1080p Latino

    2019
    Someone Great (2019) NF 1080p Latino

    0.0 1h 32m 2019

    Para Makani Young, mudarse a Nebraska desde Hawaii, resultó todo un choque cultural. Todavía adaptándose...

    Director: Jennifer Kaytin Robinson

    Género: Comedia

    Actores: Thomas Kopache

  • Super Campones (2018) Temporada 1 NF 1080p Latino

    2018
    Super Campones (2018) Temporada 1 NF 1080p Latino

    0.0 0h 22m 2018

    La historia apasionada de un estudiante de escuela primaria cuyos pensamientos y sueños giran casi enteramente...

    Director: Toshiyuki Kato

    Género: Animación

    Actores: Yuuko Sanpei

Comentarios 0