×

¿Problemas para descargar con Mozilla, EDGE? Deshabilita la opción "Abrir vinculos en una pestaña nueva" tal como lo muestra ésta imagen.

Mamá se fue de viaje (2019) WEB-DL 1080p Latino

990 vistas

Información de Mamá se fue de viaje (2019) WEB-DL 1080p Latino

Datos de la película

  • Calidad: WEBDL
  • Audio: Español Latino AC3 5.1 iTunes
  • Subtitulos: Español Latino SRT
  • Resolución: 1920x1078
  • Formato: MKV
  • Codec: H.264
  • Encoder: cinemaniahdd
  • Mediainfo: Clic para Mostrar Datos Ver
  • Mamá se fue de viaje (2019) WEB-DL 1080p Latino.mkv
    Format                      : Matroska
    Format version              : Version 4
    File size                   : 3.48 GiB
    Duration                    : 1 h 29 min
    Overall bit rate            : 5 551 kb/s
    Movie name                  : Mamá se fue de viaje (2019) - CinemaniaHDD.Net
    Encoded date                : UTC 2019-12-05 23:53:54
    Writing application         : mkvmerge v38.0.0 ('The Silent Type') 64-bit
    Writing library             : libebml v1.3.9 + libmatroska v1.5.2

    Video
    ID                          : 1
    Format                      : AVC
    Format/Info                 : Advanced Video Codec
    Format profile              : High@L4
    Format settings             : CABAC / 4 Ref Frames
    Format settings, CABAC      : Yes
    Format settings, ReFrames   : 4 frames
    Codec ID                    : V_MPEG4/ISO/AVC
    Duration                    : 1 h 29 min
    Bit rate                    : 5 165 kb/s
    Width                       : 1 920 pixels
    Height                      : 1 078 pixels
    Display aspect ratio        : 16:9
    Frame rate mode             : Constant
    Frame rate                  : 23.976 (23976/1000) FPS
    Color space                 : YUV
    Chroma subsampling          : 4:2:0
    Bit depth                   : 8 bits
    Scan type                   : Progressive
    Bits/(Pixel*Frame)          : 0.104
    Stream size                 : 3.24 GiB (93%)
    Title                       : CinemaniaHDD
    Language                    : English
    Default                     : Yes
    Forced                      : No
    Color range                 : Limited
    Color primaries             : BT.709
    Transfer characteristics    : BT.709
    Matrix coefficients         : BT.709

    Audio
    ID                          : 2
    Format                      : AC-3
    Format/Info                 : Audio Coding 3
    Commercial name             : Dolby Digital
    Codec ID                    : A_AC3
    Duration                    : 1 h 29 min
    Bit rate mode               : Constant
    Bit rate                    : 384 kb/s
    Channel(s)                  : 6 channels
    Channel layout              : L R C LFE Ls Rs
    Sampling rate               : 48.0 kHz
    Frame rate                  : 31.250 FPS (1536 SPF)
    Bit depth                   : 16 bits
    Compression mode            : Lossy
    Delay relative to video     : -42 ms
    Stream size                 : 247 MiB (7%)
    Title                       : Español latino [CinemaniaHDD]
    Language                    : Spanish
    Service kind                : Complete Main
    Default                     : Yes
    Forced                      : No

    Text
    ID                          : 3
    Format                      : UTF-8
    Codec ID                    : S_TEXT/UTF8
    Codec ID/Info               : UTF-8 Plain Text
    Duration                    : 1 h 25 min
    Bit rate                    : 69 b/s
    Count of elements           : 1478
    Stream size                 : 43.2 KiB (0%)
    Title                       : Español latino [CinemaniaHDD]
    Language                    : Spanish
    Default                     : No
    Forced                      : No

    Menu
    00:00:00.000                : en:Capítulo 1
    00:08:59.000                : en:Capítulo 2
    00:18:28.000                : en:Capítulo 3
    00:26:57.000                : en:Capítulo 4
    00:37:42.000                : en:Capítulo 5
    00:47:05.000                : en:Capítulo 6
    00:57:16.000                : en:Capítulo 7
    01:08:24.000                : en:Capítulo 8
    01:17:14.000                : en:Capítulo 9

     

  • Peso: 3.48 GiB

Sinopsis

Gira en torno a una familia que entra en dificultades cuando Cassandra (Andrea Legarreta) decide tomar unos días de descanso y dejar a Gabriel (Martín Altomaro) como responsable de sus hijos, una situación que sale de control por la subestimación que el padre tiene sobre el trabajo en el hogar de la madre. Versión mexicana de la película argentina del mismo título, estrenada en 2017.

Ficha técnica

  • Titulo original: Mamá se fue de viaje
  • Fecha de lanzamiento: 13-09-2019 (Mexico)
  • Director: Fernando Sariñana
  • Género: Comedia

Video trailer de la película

Enlaces de descarga

Rip de Bluray

Descargar Mamá se fue de viaje (2019) WEB-DL 1080p Latino




Aportes de DPeliculasHDmega la pass es:dpeliculashdmega.org Aportes de CinemaniaHD la pass es:cinemaniahdd.com
Guardado en : Comedia

Películas relacionadas

descargar Mamá se fue de viaje (2019) WEB-DL 1080p Latino WEBDL 1080p gratis, Mamá se fue de viaje (2019) WEB-DL 1080p Latino WEBDL mega 1 link, Mamá se fue de viaje (2019) WEB-DL 1080p Latino WEBDL pelicula completa, descargar Mamá se fue de viaje (2019) WEB-DL 1080p Latino WEBDL gratis en mega.

Mamá se fue de viaje (2019) WEB-DL 1080p Latino pelicula full hd, Mamá se fue de viaje (2019) WEB-DL 1080p Latino mega latino, Mamá se fue de viaje (2019) WEB-DL 1080p Latino 4k latino, Mamá se fue de viaje (2019) WEB-DL 1080p Latino pelicula completa, Mamá se fue de viaje (2019) WEB-DL 1080p Latino descargar gratis, descargar Mamá se fue de viaje (2019) WEB-DL 1080p Latino pelicula latino, Mamá se fue de viaje (2019) WEB-DL 1080p Latino 1 link mega, Mamá se fue de viaje (2019) WEB-DL 1080p Latino 1 link google drive, Mamá se fue de viaje (2019) WEB-DL 1080p Latino hd 1080p latino.
Comentarios 0