×

¿Problemas para descargar con Mozilla, EDGE? Deshabilita la opción "Abrir vinculos en una pestaña nueva" tal como lo muestra ésta imagen.

Mama (2013) REMUX 1080p Latino-CMHDD

98 vistas

Información de Mama (2013) REMUX 1080p Latino-CMHDD

Datos de la película

  • Calidad: Full 1080p
  • Audio: Español Latino DTS 5.1 BLURAY - Ingles DTS-HD 5.1 BLURAY
  • Subtitulos: Español Latino PGS - Ingles PGS
  • Resolución: 1920x1080p
  • Formato: MKV
  • Codec: H.264
  • Encoder: CinefiloCool
  • Mediainfo: Clic para Mostrar Datos Ver
  • Mama (2013) REMUX 1080p Latino-CMHDD.mkv
    Format                      : Matroska
    Format version              : Version 4
    File size                   : 25.4 GiB
    Duration                    : 1 h 40 min
    Overall bit rate mode       : Variable
    Overall bit rate            : 36.3 Mb/s
    Movie name                  : Mama (2013) CinemaniaHDD.Net
    Encoded date                : UTC 2023-10-08 04:58:31
    Writing application         : mkvmerge v56.1.0 ('My Friend') 64-bit
    Writing library             : libebml v1.4.2 + libmatroska v1.6.4
    Attachments                 : CINEMANIAHD.png

    Video
    ID                          : 1
    ID in the original source m : 4113 (0x1011)
    Format                      : AVC
    Format/Info                 : Advanced Video Codec
    Format profile              : High@L4.1
    Format settings             : CABAC / 4 Ref Frames
    Format settings, CABAC      : Yes
    Format settings, Reference  : 4 frames
    Format settings, GOP        : M=3, N=12
    Codec ID                    : V_MPEG4/ISO/AVC
    Duration                    : 1 h 40 min
    Bit rate mode               : Variable
    Bit rate                    : 31.8 Mb/s
    Maximum bit rate            : 33.0 Mb/s
    Width                       : 1 920 pixels
    Height                      : 1 080 pixels
    Display aspect ratio        : 16:9
    Frame rate mode             : Constant
    Frame rate                  : 23.976 (24000/1001) FPS
    Color space                 : YUV
    Chroma subsampling          : 4:2:0
    Bit depth                   : 8 bits
    Scan type                   : Progressive
    Bits/(Pixel*Frame)          : 0.640
    Stream size                 : 22.2 GiB (88%)
    Title                       : REMUX HD1080p [CinemaniaHDD]
    Default                     : Yes
    Forced                      : Yes
    Original source medium      : Blu-ray

    Audio #1
    ID                          : 2
    ID in the original source m : 4356 (0x1104)
    Format                      : DTS
    Format/Info                 : Digital Theater Systems
    Codec ID                    : A_DTS
    Duration                    : 1 h 40 min
    Bit rate mode               : Constant
    Bit rate                    : 768 kb/s
    Channel(s)                  : 6 channels
    Channel layout              : C L R Ls Rs LFE
    Sampling rate               : 48.0 kHz
    Frame rate                  : 93.750 FPS (512 SPF)
    Bit depth                   : 24 bits
    Compression mode            : Lossy
    Stream size                 : 549 MiB (2%)
    Title                       : Español Latino [CinemaniaHDD]
    Language                    : Spanish
    Default                     : Yes
    Forced                      : Yes
    Original source medium      : Blu-ray

    Audio #2
    ID                          : 3
    ID in the original source m : 4352 (0x1100)
    Format                      : DTS XLL
    Format/Info                 : Digital Theater Systems
    Commercial name             : DTS-HD Master Audio
    Codec ID                    : A_DTS
    Duration                    : 1 h 40 min
    Bit rate mode               : Variable
    Bit rate                    : 3 695 kb/s
    Channel(s)                  : 6 channels
    Channel layout              : C L R Ls Rs LFE
    Sampling rate               : 48.0 kHz
    Frame rate                  : 93.750 FPS (512 SPF)
    Bit depth                   : 24 bits
    Compression mode            : Lossless
    Stream size                 : 2.58 GiB (10%)
    Title                       : Ingles [CinemaniaHDD]
    Language                    : English
    Default                     : No
    Forced                      : No
    Original source medium      : Blu-ray

    Text #1
    ID                          : 4
    ID in the original source m : 4630 (0x1216)
    Format                      : PGS
    Muxing mode                 : zlib
    Codec ID                    : S_HDMV/PGS
    Codec ID/Info               : Picture based subtitle format used on BDs/HD-DVDs
    Duration                    : 49 min 8 s
    Bit rate                    : 168 b/s
    Count of elements           : 6
    Stream size                 : 60.6 KiB (0%)
    Title                       : Forzados-PGS [CinemaniaHDD]
    Language                    : Spanish
    Default                     : No
    Forced                      : No
    Original source medium      : Blu-ray

    Text #2
    ID                          : 5
    ID in the original source m : 4612 (0x1204)
    Format                      : PGS
    Muxing mode                 : zlib
    Codec ID                    : S_HDMV/PGS
    Codec ID/Info               : Picture based subtitle format used on BDs/HD-DVDs
    Duration                    : 1 h 34 min
    Bit rate                    : 16.1 kb/s
    Count of elements           : 1228
    Stream size                 : 10.9 MiB (0%)
    Title                       : Español-PGS [CinemaniaHDD]
    Language                    : Spanish
    Default                     : No
    Forced                      : No
    Original source medium      : Blu-ray

    Text #3
    ID                          : 6
    ID in the original source m : 4608 (0x1200)
    Format                      : PGS
    Muxing mode                 : zlib
    Codec ID                    : S_HDMV/PGS
    Codec ID/Info               : Picture based subtitle format used on BDs/HD-DVDs
    Duration                    : 1 h 34 min
    Bit rate                    : 22.7 kb/s
    Count of elements           : 1664
    Stream size                 : 15.3 MiB (0%)
    Title                       : Ingles [CinemaniaHDD]
    Language                    : English
    Default                     : No
    Forced                      : No
    Original source medium      : Blu-ray

    Text #4
    ID                          : 7
    Format                      : UTF-8
    Codec ID                    : S_TEXT/UTF8
    Codec ID/Info               : UTF-8 Plain Text
    Duration                    : 1 h 24 min
    Bit rate                    : 0 b/s
    Count of elements           : 11
    Stream size                 : 318 Bytes (0%)
    Title                       : Forzados-SRT [CinemaniaHDD]
    Language                    : Spanish
    Default                     : Yes
    Forced                      : Yes

    Text #5
    ID                          : 8
    Format                      : UTF-8
    Codec ID                    : S_TEXT/UTF8
    Codec ID/Info               : UTF-8 Plain Text
    Duration                    : 1 h 34 min
    Bit rate                    : 26 b/s
    Count of elements           : 614
    Stream size                 : 18.4 KiB (0%)
    Title                       : Español-SRT [CinemaniaHDD]
    Language                    : Spanish
    Default                     : No
    Forced                      : No

    Menu
    00:00:00.000                : Chapter 01
    00:04:57.880                : Chapter 02
    00:11:47.164                : Chapter 03
    00:17:33.761                : Chapter 04
    00:20:51.416                : Chapter 05
    00:26:08.733                : Chapter 06
    00:32:02.795                : Chapter 07
    00:36:53.169                : Chapter 08
    00:40:12.535                : Chapter 09
    00:44:43.222                : Chapter 10
    00:47:35.185                : Chapter 11
    00:53:04.389                : Chapter 12
    00:58:55.281                : Chapter 13
    01:04:38.165                : Chapter 14
    01:11:00.339                : Chapter 15
    01:16:49.146                : Chapter 16
    01:22:00.999                : Chapter 17
    01:25:14.526                : Chapter 18
    01:29:15.058                : Chapter 19
    01:35:29.348                : Chapter 20

  • Peso: 25.4 GiB

Sinopsis

Descargar Mama (2013) REMUX 1080p Latino-CMHDD. El día que su padre mató a su madre, las hermanas Victoria y Lilly desaparecieron en el bosque cercano a la urbanización donde vivían. Su tío Lucas y su novia Annabel las han buscado sin cesar durante cinco años. Cuando ocurre lo imposible y las niñas aparecen en una cabaña medio derruida, la pareja empieza a preguntarse si no ha llegado alguien más a su casa acompañando a las niñas. Annabel intenta ofrecer una vida normal a las niñas, pero acaba convencida de que hay una presencia malévola en la casa. ¿Sufren las hermanas de estrés traumático o viene un fantasma a visitarlas? Mientras intenta contestar a estas inquietantes preguntas, la nueva madre acabará descubriendo que los susurros que se oyen a la hora de dormir proceden de los labios de una presencia letal.

Ficha técnica

Video trailer de la película

Enlaces de descarga

Rip de Bluray

Descargar Mama (2013) REMUX 1080p Latino-CMHDD


Aportes de DPeliculasHDmega la pass es:dpeliculashdmega.org Aportes de CinemaniaHD la pass es:cinemaniahdd.com Aportes recientes:cinemaniahdd.net
Guardado en : Terror , Remux

Películas relacionadas

  • iZombie (2016) Temporada 02 REMUX 1080p Latino

    iZombie (2016) Temporada 02 REMUX 1080p Latino

    2015
    iZombie (2016) Temporada 02 REMUX 1080p Latino

    0h 42m 2015

    Descargar iZombie (2016) Temporada 02 REMUX 1080p Latino. Gira en torno a una estudiante de medicina...

    Director: Rob Thomas

    Género: Crimen

    Actores: Rose McIver

  • iZombie (2015) Temporada 01 REMUX 1080p Latino

    iZombie (2015) Temporada 01 REMUX 1080p Latino

    2015
    iZombie (2015) Temporada 01 REMUX 1080p Latino

    0h 42m 2015

    Descargar iZombie (2015) Temporada 01 REMUX 1080p Latino. Gira en torno a una estudiante de medicina...

    Director: Rob Thomas

    Género: Crimen

    Actores: Rose McIver

  • Fear (2023) AMZN WEB-DL 1080p Latino

    Fear (2023) AMZN WEB-DL 1080p Latino

    2023
    Fear (2023) AMZN WEB-DL 1080p Latino

    1h 38m 2023

    Una escapada muy necesaria y un fin de semana de celebración se convierte en una pesadilla debido a...

    Director: Deon Taylor

    Género: Drama

    Actores: Whylip Lee

  • Good Burger 2 (2023) REMUX 1080p Latino

    Good Burger 2 (2023) REMUX 1080p Latino

    2023
    Good Burger 2 (2023) REMUX 1080p Latino

    1h 31m 2023

    Descargar Good Burger 2 (2023) REMUX 1080p Latino. Después de que su último invento falla, Ed le da...

    Director: Ross Novie

    Género: Comedia

    Actores: Zoe Saldana

descargar Mama (2013) REMUX 1080p Latino-CMHDD Full 1080p 1080p gratis, Mama (2013) REMUX 1080p Latino-CMHDD Full 1080p mega 1 link, Mama (2013) REMUX 1080p Latino-CMHDD Full 1080p pelicula completa, descargar Mama (2013) REMUX 1080p Latino-CMHDD Full 1080p gratis en mega.

Mama (2013) REMUX 1080p Latino-CMHDD pelicula full hd, Mama (2013) REMUX 1080p Latino-CMHDD mega latino, Mama (2013) REMUX 1080p Latino-CMHDD 4k latino, Mama (2013) REMUX 1080p Latino-CMHDD pelicula completa, Mama (2013) REMUX 1080p Latino-CMHDD descargar gratis, descargar Mama (2013) REMUX 1080p Latino-CMHDD pelicula latino, Mama (2013) REMUX 1080p Latino-CMHDD 1 link mega, Mama (2013) REMUX 1080p Latino-CMHDD 1 link google drive, Mama (2013) REMUX 1080p Latino-CMHDD hd 1080p latino.
Comentarios 0