×

¿Problemas para descargar con Mozilla, EDGE? Deshabilita la opción "Abrir vinculos en una pestaña nueva" tal como lo muestra ésta imagen.

Maleficent Mistress of Evil (2019) REMUX 4K HDR Latino – CMHDD

451 vistas

Información de Maleficent Mistress of Evil (2019) REMUX 4K HDR Latino – CMHDD

Datos de la película

  • Calidad: 4K HDR
  • Audio: Se especifica abajo de la Sinopsis
  • Subtitulos: Español Latino PGS
  • Resolución: 3840x2160p
  • Formato: MKV
  • Codec: H.264
  • Encoder: Dracarys
  • Mediainfo: Clic para Mostrar Datos Ver
  • Format                      : Matroska
    Format version              : Version 4
    File size                   : 49.1 GiB
    Duration                    : 1 h 58 min
    Overall bit rate mode       : Variable
    Overall bit rate            : 59.1 Mb/s
    Movie name                  : Maleficent: Mistress of Evil (2019) REMUX 4K HDR Latino - CMHDD
    Encoded date                : UTC 2021-03-23 21:25:52
    Writing application         : mkvmerge v51.0.0 ('I Wish') 64-bit
    Writing library             : libebml v1.4.0 + libmatroska v1.6.2
    Cover                       : Yes
    Attachments                 : cover.jpg

    Video
    ID                          : 1
    ID in the original source m : 4113 (0x1011)
    Format                      : HEVC
    Format/Info                 : High Efficiency Video Coding
    Format profile              : Main 10@L5.1@High
    HDR format                  : SMPTE ST 2086, HDR10 compatible
    Codec ID                    : V_MPEGH/ISO/HEVC
    Duration                    : 1 h 58 min
    Bit rate                    : 52.9 Mb/s
    Width                       : 3 840 pixels
    Height                      : 2 160 pixels
    Display aspect ratio        : 16:9
    Frame rate mode             : Constant
    Frame rate                  : 23.976 (24000/1001) FPS
    Color space                 : YUV
    Chroma subsampling          : 4:2:0 (Type 2)
    Bit depth                   : 10 bits
    Bits/(Pixel*Frame)          : 0.266
    Stream size                 : 43.9 GiB (89%)
    Writing library             : ATEME Titan File 3.9.0 (4.9.0.0)        
    Default                     : Yes
    Forced                      : No
    Color range                 : Limited
    Color primaries             : BT.2020
    Transfer characteristics    : PQ
    Matrix coefficients         : BT.2020 non-constant
    Mastering display color pri : Display P3
    Mastering display luminance : min: 0.0001 cd/m2, max: 1000 cd/m2
    Original source medium      : Blu-ray

    Audio #1
    ID                          : 2
    ID in the original source m : 4356 (0x1104)
    Format                      : E-AC-3
    Format/Info                 : Enhanced AC-3
    Commercial name             : Dolby Digital Plus
    Format profile              : Blu-ray Disc
    Codec ID                    : A_EAC3
    Duration                    : 1 h 58 min
    Bit rate mode               : Constant
    Bit rate                    : 1 024 kb/s
    Channel(s)                  : 8 channels
    Channel layout              : L R C LFE Ls Rs Lb Rb
    Sampling rate               : 48.0 kHz
    Frame rate                  : 31.250 FPS (1536 SPF)
    Compression mode            : Lossy
    Stream size                 : 871 MiB (2%)
    Language                    : Spanish
    Service kind                : Complete Main
    Default                     : Yes
    Forced                      : No
    Original source medium      : Blu-ray

    Audio #2
    ID                          : 3
    ID in the original source m : 4352 (0x1100)
    Format                      : MLP FBA 16-ch
    Format/Info                 : Meridian Lossless Packing FBA with 16-channel presentation
    Commercial name             : Dolby TrueHD with Dolby Atmos
    Codec ID                    : A_TRUEHD
    Duration                    : 1 h 58 min
    Bit rate mode               : Variable
    Bit rate                    : 5 128 kb/s
    Maximum bit rate            : 8 160 kb/s
    Channel(s)                  : 8 channels
    Channel layout              : L R C LFE Ls Rs Lb Rb
    Sampling rate               : 48.0 kHz
    Frame rate                  : 1 200.000 FPS (40 SPF)
    Compression mode            : Lossless
    Stream size                 : 4.26 GiB (9%)
    Language                    : English
    Default                     : No
    Forced                      : No
    Original source medium      : Blu-ray
    Number of dynamic objects   : 13
    Bed channel count           : 1 channel
    Bed channel configuration   : LFE

    Text #1
    ID                          : 4
    ID in the original source m : 4771 (0x12A3)
    Format                      : PGS
    Muxing mode                 : zlib
    Codec ID                    : S_HDMV/PGS
    Codec ID/Info               : Picture based subtitle format used on BDs/HD-DVDs
    Duration                    : 1 h 48 min
    Bit rate                    : 21.2 kb/s
    Count of elements           : 2022
    Stream size                 : 16.5 MiB (0%)
    Language                    : Spanish
    Default                     : No
    Forced                      : No
    Original source medium      : Blu-ray

    Text #2
    ID                          : 5
    ID in the original source m : 4779 (0x12AB)
    Format                      : PGS
    Muxing mode                 : zlib
    Codec ID                    : S_HDMV/PGS
    Codec ID/Info               : Picture based subtitle format used on BDs/HD-DVDs
    Duration                    : 7 s 7 ms
    Bit rate                    : 20.9 kb/s
    Count of elements           : 2
    Stream size                 : 17.8 KiB (0%)
    Language                    : Spanish
    Default                     : No
    Forced                      : No
    Original source medium      : Blu-ray

    Menu
    00:00:00.000                : en:Chapter 01
    00:06:47.907                : en:Chapter 02
    00:09:11.676                : en:Chapter 03
    00:14:45.551                : en:Chapter 04
    00:19:27.833                : en:Chapter 05
    00:23:10.555                : en:Chapter 06
    00:33:51.904                : en:Chapter 07
    00:39:10.264                : en:Chapter 08
    00:42:19.578                : en:Chapter 09
    00:48:31.992                : en:Chapter 10
    00:52:44.744                : en:Chapter 11
    00:57:15.140                : en:Chapter 12
    00:59:26.145                : en:Chapter 13
    01:05:47.568                : en:Chapter 14
    01:09:31.750                : en:Chapter 15
    01:19:07.242                : en:Chapter 16
    01:22:48.546                : en:Chapter 17
    01:29:09.218                : en:Chapter 18
    01:35:00.653                : en:Chapter 19
    01:44:26.510                : en:Chapter 20
    01:51:06.993                : en:Chapter 21

  • Peso: 49.1 GiB

Sinopsis

Maléfica: Maestra del mal, de Disney, es una aventura de fantasía que retoma la historia de Maléfica varios años más tarde —en la que se dieron a conocer los hechos que endurecieron el corazón de la villana más emblemática de Disney y la llevaron a arrojar una maldición sobre la princesa recién nacida: Aurora. La película continúa explorando la compleja relación entre el hada de enormes cuernos y la futura reina, mientras forjan nuevas alianzas y se enfrentan a nuevos adversarios en su lucha por proteger el páramo y las criaturas mágicas que lo habitan.

 

Latino: E-AC3 7.1  –  Ingles: TrueHD 7.1

Ficha técnica

Video trailer de la película

Enlaces de descarga

Rip de Bluray

Descargar Maleficent Mistress of Evil (2019) REMUX 4K HDR Latino – CMHDD


Aportes de DPeliculasHDmega la pass es:dpeliculashdmega.org Aportes de CinemaniaHD la pass es:cinemaniahdd.com
Guardado en : Aventura , Familia , Fantasía

Películas relacionadas

descargar Maleficent Mistress of Evil (2019) REMUX 4K HDR Latino – CMHDD 4K HDR 1080p gratis, Maleficent Mistress of Evil (2019) REMUX 4K HDR Latino – CMHDD 4K HDR mega 1 link, Maleficent Mistress of Evil (2019) REMUX 4K HDR Latino – CMHDD 4K HDR pelicula completa, descargar Maleficent Mistress of Evil (2019) REMUX 4K HDR Latino – CMHDD 4K HDR gratis en mega.

Maleficent Mistress of Evil (2019) REMUX 4K HDR Latino – CMHDD pelicula full hd, Maleficent Mistress of Evil (2019) REMUX 4K HDR Latino – CMHDD mega latino, Maleficent Mistress of Evil (2019) REMUX 4K HDR Latino – CMHDD 4k latino, Maleficent Mistress of Evil (2019) REMUX 4K HDR Latino – CMHDD pelicula completa, Maleficent Mistress of Evil (2019) REMUX 4K HDR Latino – CMHDD descargar gratis, descargar Maleficent Mistress of Evil (2019) REMUX 4K HDR Latino – CMHDD pelicula latino, Maleficent Mistress of Evil (2019) REMUX 4K HDR Latino – CMHDD 1 link mega, Maleficent Mistress of Evil (2019) REMUX 4K HDR Latino – CMHDD 1 link google drive, Maleficent Mistress of Evil (2019) REMUX 4K HDR Latino – CMHDD hd 1080p latino.
Comentarios 0