×

¿Problemas para descargar con Mozilla, EDGE? Deshabilita la opción "Abrir vinculos en una pestaña nueva" tal como lo muestra ésta imagen.

Maléfica (2014) REMUX 1080p Latino

645 vistas

Información de Maléfica (2014) REMUX 1080p Latino

Datos de la película

  • Calidad: Full 1080p
  • Audio: Español Latino AC3 5.1 BLURAY - Ingles DTS-HD Master 7.1 BLURAY
  • Subtitulos: Español Latino PGS - Ingles PGS
  • Resolución: 1920x1080p
  • Formato: MKV
  • Codec: H.264
  • Encoder: CinefiloCool
  • Mediainfo: Clic para Mostrar Datos Ver
  • Malefica (2014) REMUX 1080p Latino-CMHDD.mkv
    Format                      : Matroska
    Format version              : Version 4
    File size                   : 23.9 GiB
    Duration                    : 1 h 37 min
    Overall bit rate mode       : Variable
    Overall bit rate            : 35.1 Mb/s
    Movie name                  : Malefica (2014) CinemaniaHDD.Net
    Encoded date                : UTC 2020-01-06 15:57:06
    Writing application         : mkvmerge v38.0.0 ('The Silent Type') 64-bit
    Writing library             : libebml v1.3.9 + libmatroska v1.5.2
    Attachments                 : CINEMANIAHD.png

    Video
    ID                          : 1
    Format                      : AVC
    Format/Info                 : Advanced Video Codec
    Format profile              : High@L4.1
    Format settings             : CABAC / 4 Ref Frames
    Format settings, CABAC      : Yes
    Format settings, ReFrames   : 4 frames
    Codec ID                    : V_MPEG4/ISO/AVC
    Duration                    : 1 h 37 min
    Bit rate mode               : Variable
    Bit rate                    : 28.0 Mb/s
    Maximum bit rate            : 33.5 Mb/s
    Width                       : 1 920 pixels
    Height                      : 1 080 pixels
    Display aspect ratio        : 16:9
    Frame rate mode             : Constant
    Frame rate                  : 23.976 (24000/1001) FPS
    Color space                 : YUV
    Chroma subsampling          : 4:2:0
    Bit depth                   : 8 bits
    Scan type                   : Progressive
    Bits/(Pixel*Frame)          : 0.564
    Stream size                 : 19.1 GiB (80%)
    Title                       : Full HD1080p [REMUX]
    Default                     : Yes
    Forced                      : Yes

    Audio #1
    ID                          : 2
    Format                      : AC-3
    Format/Info                 : Audio Coding 3
    Commercial name             : Dolby Digital
    Codec ID                    : A_AC3
    Duration                    : 1 h 37 min
    Bit rate mode               : Constant
    Bit rate                    : 640 kb/s
    Channel(s)                  : 6 channels
    Channel layout              : L R C LFE Ls Rs
    Sampling rate               : 48.0 kHz
    Frame rate                  : 31.250 FPS (1536 SPF)
    Bit depth                   : 16 bits
    Compression mode            : Lossy
    Stream size                 : 446 MiB (2%)
    Title                       : AC3_5.1_Bluray_Esp
    Language                    : Spanish
    Service kind                : Complete Main
    Default                     : Yes
    Forced                      : Yes

    Audio #2
    ID                          : 3
    Format                      : DTS XLL
    Format/Info                 : Digital Theater Systems
    Commercial name             : DTS-HD Master Audio
    Codec ID                    : A_DTS
    Duration                    : 1 h 37 min
    Bit rate mode               : Variable
    Bit rate                    : 4 858 kb/s
    Channel(s)                  : 8 channels
    Channel layout              : C L R LFE Lb Rb Lss Rss
    Sampling rate               : 48.0 kHz
    Frame rate                  : 93.750 FPS (512 SPF)
    Bit depth                   : 24 bits
    Compression mode            : Lossless
    Stream size                 : 3.31 GiB (14%)
    Title                       : DTS-HD_7.1_Bluray_Eng
    Language                    : English
    Default                     : No
    Forced                      : No

    Audio #3
    ID                          : 4
    Format                      : DTS
    Format/Info                 : Digital Theater Systems
    Codec ID                    : A_DTS
    Duration                    : 1 h 37 min
    Bit rate mode               : Constant
    Bit rate                    : 1 509 kb/s
    Channel(s)                  : 6 channels
    Channel layout              : C L R Ls Rs LFE
    Sampling rate               : 48.0 kHz
    Frame rate                  : 93.750 FPS (512 SPF)
    Bit depth                   : 24 bits
    Compression mode            : Lossy
    Stream size                 : 1.03 GiB (4%)
    Title                       : DTS_5.1_Bluray_Eng
    Language                    : English
    Default                     : No
    Forced                      : No

    Text #1
    ID                          : 5
    Format                      : PGS
    Muxing mode                 : zlib
    Codec ID                    : S_HDMV/PGS
    Codec ID/Info               : Picture based subtitle format used on BDs/HD-DVDs
    Duration                    : 1 min 5 s
    Bit rate                    : 1 893 b/s
    Count of elements           : 4
    Stream size                 : 15.0 KiB (0%)
    Title                       : Sub_Forzados [PGS]
    Language                    : Spanish
    Default                     : Yes
    Forced                      : Yes

    Text #2
    ID                          : 6
    Format                      : PGS
    Muxing mode                 : zlib
    Codec ID                    : S_HDMV/PGS
    Codec ID/Info               : Picture based subtitle format used on BDs/HD-DVDs
    Duration                    : 1 h 29 min
    Bit rate                    : 18.6 kb/s
    Count of elements           : 1474
    Stream size                 : 11.9 MiB (0%)
    Title                       : Sub_Esp [PGS]
    Language                    : Spanish
    Default                     : No
    Forced                      : No

    Text #3
    ID                          : 7
    Format                      : PGS
    Muxing mode                 : zlib
    Codec ID                    : S_HDMV/PGS
    Codec ID/Info               : Picture based subtitle format used on BDs/HD-DVDs
    Duration                    : 1 h 27 min
    Bit rate                    : 18.8 kb/s
    Count of elements           : 1426
    Stream size                 : 11.8 MiB (0%)
    Title                       : Sub_Eng [PGS]
    Language                    : English
    Default                     : No
    Forced                      : No

    Text #4
    ID                          : 8
    Format                      : UTF-8
    Codec ID                    : S_TEXT/UTF8
    Codec ID/Info               : UTF-8 Plain Text
    Duration                    : 1 min 5 s
    Bit rate                    : 2 b/s
    Count of elements           : 2
    Stream size                 : 18.0 Bytes (0%)
    Title                       : Sub_Forzados
    Language                    : Spanish
    Default                     : No
    Forced                      : No

    Text #5
    ID                          : 9
    Format                      : UTF-8
    Codec ID                    : S_TEXT/UTF8
    Codec ID/Info               : UTF-8 Plain Text
    Duration                    : 1 h 28 min
    Bit rate                    : 29 b/s
    Count of elements           : 727
    Stream size                 : 18.9 KiB (0%)
    Title                       : Sub_Esp
    Language                    : Spanish
    Default                     : No
    Forced                      : No

    Menu
    00:00:00.000                : :Chapter 1
    00:03:00.722                : :Chapter 2
    00:08:10.949                : :Chapter 3
    00:14:00.757                : :Chapter 4
    00:19:10.608                : :Chapter 5
    00:25:59.058                : :Chapter 6
    00:33:09.738                : :Chapter 7
    00:38:30.809                : :Chapter 8
    00:43:21.224                : :Chapter 9
    00:46:56.105                : :Chapter 10
    00:51:11.944                : :Chapter 11
    00:54:18.881                : :Chapter 12
    00:58:37.723                : :Chapter 13
    01:01:58.048                : :Chapter 14
    01:05:10.115                : :Chapter 15
    01:09:56.776                : :Chapter 16
    01:15:40.703                : :Chapter 17
    01:17:43.659                : :Chapter 18
    01:25:45.015                : :Chapter 19
    01:28:38.647                : :Chapter 20

  • Peso: 23.9 GiB

Sinopsis

descargar Maléfica (2014) REMUX 1080p Latino. Es la historia jamás contada de Maléfica, la villana más querida de Disney, la mala de «La Bella durmiente», el clásico de 1959. La película relata los acontecimientos que endurecieron su corazón y la llevaron a lanzar una maldición sobre la pequeña Aurora.

Ficha técnica

Video trailer de la película

Enlaces de descarga

Rip de Bluray

Descargar Maléfica (2014) REMUX 1080p Latino




Aportes de DPeliculasHDmega la pass es:dpeliculashdmega.org Aportes de CinemaniaHD la pass es:cinemaniahdd.com
Guardado en : Acción , Aventura , Familia , Fantasía , Remux , Romance

Películas relacionadas

descargar Maléfica (2014) REMUX 1080p Latino Full 1080p 1080p gratis, Maléfica (2014) REMUX 1080p Latino Full 1080p mega 1 link, Maléfica (2014) REMUX 1080p Latino Full 1080p pelicula completa, descargar Maléfica (2014) REMUX 1080p Latino Full 1080p gratis en mega.

Maléfica (2014) REMUX 1080p Latino pelicula full hd, Maléfica (2014) REMUX 1080p Latino mega latino, Maléfica (2014) REMUX 1080p Latino 4k latino, Maléfica (2014) REMUX 1080p Latino pelicula completa, Maléfica (2014) REMUX 1080p Latino descargar gratis, descargar Maléfica (2014) REMUX 1080p Latino pelicula latino, Maléfica (2014) REMUX 1080p Latino 1 link mega, Maléfica (2014) REMUX 1080p Latino 1 link google drive, Maléfica (2014) REMUX 1080p Latino hd 1080p latino.
Comentarios 0