×

¿Problemas para descargar con Mozilla, EDGE? Deshabilita la opción "Abrir vinculos en una pestaña nueva" tal como lo muestra ésta imagen.

Maléfica: Dueña del mal (2019) 1080p Latino

5.474 vistas

Información de Maléfica: Dueña del mal (2019) 1080p Latino

Datos de la película

  • Calidad: 1080p
  • Audio: Español Latino AC3 5.1 BLURAY - Ingles AC3 5.1 BLURAY
  • Subtitulos: Español Latino SRT- FORZADOS SRT
  • Resolución: 1920x804
  • Formato: MKV
  • Codec: H.264
  • Encoder: cinemaniahdd
  • Mediainfo: Clic para Mostrar Datos Ver
  • Maléfica, Dueña del mal (2019) 1080p Latino.mkv
    Format                      : Matroska
    Format version              : Version 4
    File size                   : 3.77 GiB
    Duration                    : 1 h 58 min
    Overall bit rate            : 4 545 kb/s
    Movie name                  : Maléfica, Dueña del mal (2019) - CinemaniaHDD.Net
    Encoded date                : UTC 2020-01-01 23:07:29
    Writing application         : mkvmerge v38.0.0 ('The Silent Type') 64-bit
    Writing library             : libebml v1.3.9 + libmatroska v1.5.2

    Video
    ID                          : 1
    Format                      : AVC
    Format/Info                 : Advanced Video Codec
    Format profile              : High@L4.1
    Format settings             : CABAC / 5 Ref Frames
    Format settings, CABAC      : Yes
    Format settings, ReFrames   : 5 frames
    Codec ID                    : V_MPEG4/ISO/AVC
    Duration                    : 1 h 58 min
    Bit rate                    : 3 500 kb/s
    Width                       : 1 920 pixels
    Height                      : 804 pixels
    Display aspect ratio        : 2.40:1
    Frame rate mode             : Constant
    Frame rate                  : 23.976 (24000/1001) FPS
    Color space                 : YUV
    Chroma subsampling          : 4:2:0
    Bit depth                   : 8 bits
    Scan type                   : Progressive
    Bits/(Pixel*Frame)          : 0.095
    Stream size                 : 2.87 GiB (76%)
    Title                       : CinemaniaHDD
    Writing library             : x264 core 157 r2935 545de2f
    Encoding settings           : cabac=1 / ref=5 / deblock=1:0:0 / analyse=0x3:0x113 / me=hex / subme=8 / psy=1 / psy_rd=1.00:0.00 / mixed_ref=1 / me_range=16 / chroma_me=1 / trellis=2 / 8x8dct=1 / cqm=0 / deadzone=21,11 / fast_pskip=1 / chroma_qp_offset=-2 / threads=25 / lookahead_threads=4 / sliced_threads=0 / nr=0 / decimate=1 / interlaced=0 / bluray_compat=0 / constrained_intra=0 / bframes=3 / b_pyramid=2 / b_adapt=1 / b_bias=0 / direct=3 / weightb=1 / open_gop=0 / weightp=2 / keyint=240 / keyint_min=24 / scenecut=40 / intra_refresh=0 / rc_lookahead=50 / rc=abr / mbtree=1 / bitrate=3500 / ratetol=1.0 / qcomp=0.60 / qpmin=0 / qpmax=69 / qpstep=4 / vbv_maxrate=62500 / vbv_bufsize=78125 / nal_hrd=none / filler=0 / ip_ratio=1.40 / aq=1:1.00
    Default                     : Yes
    Forced                      : No
    Color range                 : Limited
    Color primaries             : BT.709
    Transfer characteristics    : BT.709
    Matrix coefficients         : BT.709

    Audio #1
    ID                          : 2
    Format                      : AC-3
    Format/Info                 : Audio Coding 3
    Commercial name             : Dolby Digital
    Codec ID                    : A_AC3
    Duration                    : 1 h 58 min
    Bit rate mode               : Constant
    Bit rate                    : 640 kb/s
    Channel(s)                  : 6 channels
    Channel layout              : L R C LFE Ls Rs
    Sampling rate               : 48.0 kHz
    Frame rate                  : 31.250 FPS (1536 SPF)
    Bit depth                   : 16 bits
    Compression mode            : Lossy
    Delay relative to video     : -5 ms
    Stream size                 : 544 MiB (14%)
    Title                       : Español latino [CinemaniaHDD]
    Language                    : Spanish
    Service kind                : Complete Main
    Default                     : Yes
    Forced                      : No

    Audio #2
    ID                          : 3
    Format                      : AC-3
    Format/Info                 : Audio Coding 3
    Commercial name             : Dolby Digital
    Codec ID                    : A_AC3
    Duration                    : 1 h 58 min
    Bit rate mode               : Constant
    Bit rate                    : 448 kb/s
    Channel(s)                  : 6 channels
    Channel layout              : L R C LFE Ls Rs
    Sampling rate               : 48.0 kHz
    Frame rate                  : 31.250 FPS (1536 SPF)
    Bit depth                   : 16 bits
    Compression mode            : Lossy
    Delay relative to video     : -5 ms
    Stream size                 : 381 MiB (10%)
    Title                       : Inglés [CinemaniaHDD]
    Language                    : English
    Service kind                : Complete Main
    Default                     : No
    Forced                      : No

    Text #1
    ID                          : 4
    Format                      : UTF-8
    Codec ID                    : S_TEXT/UTF8
    Codec ID/Info               : UTF-8 Plain Text
    Duration                    : 7 s 7 ms
    Bit rate                    : 28 b/s
    Count of elements           : 1
    Stream size                 : 25.0 Bytes (0%)
    Title                       : Forzados [CinemaniaHDD]
    Language                    : Spanish
    Default                     : Yes
    Forced                      : Yes

    Text #2
    ID                          : 5
    Format                      : UTF-8
    Codec ID                    : S_TEXT/UTF8
    Codec ID/Info               : UTF-8 Plain Text
    Duration                    : 1 h 48 min
    Bit rate                    : 33 b/s
    Count of elements           : 1011
    Stream size                 : 26.8 KiB (0%)
    Title                       : Español latino [CinemaniaHDD]
    Language                    : Spanish
    Default                     : No
    Forced                      : No

    Menu
    00:00:00.000                : :Chapter 01
    00:06:47.907                : :Chapter 02
    00:09:11.676                : :Chapter 03
    00:14:45.551                : :Chapter 04
    00:19:27.833                : :Chapter 05
    00:23:10.555                : :Chapter 06
    00:33:51.904                : :Chapter 07
    00:39:10.264                : :Chapter 08
    00:42:19.578                : :Chapter 09
    00:48:31.992                : :Chapter 10
    00:52:44.744                : :Chapter 11
    00:57:15.140                : :Chapter 12
    00:59:26.145                : :Chapter 13
    01:05:47.568                : :Chapter 14
    01:09:31.750                : :Chapter 15
    01:19:07.242                : :Chapter 16
    01:22:48.546                : :Chapter 17
    01:29:09.218                : :Chapter 18
    01:35:00.653                : :Chapter 19
    01:44:26.510                : :Chapter 20
    01:51:06.993                : :Chapter 21

     

  • Peso: 3.77 GiB

Sinopsis

Secuela de «Maléfica» que cuenta la vida de Maléfica y Aurora, así como las alianzas que formarán para sobrevivir a las amenazas del mágico mundo en el que habitan.

Ficha técnica

Video trailer de la película

Enlaces de descarga

Rip de Bluray

Descargar Maléfica: Dueña del mal (2019) 1080p Latino




Aportes de DPeliculasHDmega la pass es:dpeliculashdmega.org Aportes de CinemaniaHD la pass es:cinemaniahdd.com
Guardado en : Aventura , Familia , Fantasía , HD 1080p

Películas relacionadas

descargar Maléfica: Dueña del mal (2019) 1080p Latino 1080p 1080p gratis, Maléfica: Dueña del mal (2019) 1080p Latino 1080p mega 1 link, Maléfica: Dueña del mal (2019) 1080p Latino 1080p pelicula completa, descargar Maléfica: Dueña del mal (2019) 1080p Latino 1080p gratis en mega.

Maléfica: Dueña del mal (2019) 1080p Latino pelicula full hd, Maléfica: Dueña del mal (2019) 1080p Latino mega latino, Maléfica: Dueña del mal (2019) 1080p Latino 4k latino, Maléfica: Dueña del mal (2019) 1080p Latino pelicula completa, Maléfica: Dueña del mal (2019) 1080p Latino descargar gratis, descargar Maléfica: Dueña del mal (2019) 1080p Latino pelicula latino, Maléfica: Dueña del mal (2019) 1080p Latino 1 link mega, Maléfica: Dueña del mal (2019) 1080p Latino 1 link google drive, Maléfica: Dueña del mal (2019) 1080p Latino hd 1080p latino.
Comentarios 0