×

¿Problemas para descargar con Mozilla, EDGE? Deshabilita la opción "Abrir vinculos en una pestaña nueva" tal como lo muestra ésta imagen.

Malcolm in the Middle (2004) Temporada 5 AMZN WEB-DL 1080p latino

1.985 vistas

Información de Malcolm in the Middle (2004) Temporada 5 AMZN WEB-DL 1080p latino

Datos de la película

  • Calidad: WEBDL
  • Audio: Se especifica abajo de la Sinopsis
  • Subtitulos: Español Latino SRT - Ingles SRT
  • Resolución: 1920x1080
  • Formato: MKV
  • Codec: H.264
  • Encoder: cinemaniahdd
  • Mediainfo: Clic para Mostrar Datos Ver
  • Malcolm in the Middle T05E01 AMZN WEB-DL 1080p Latino [CNMNHDD].mkv
    Format                      : Matroska
    Format version              : Version 4
    File size                   : 2.10 GiB
    Duration                    : 22 min 32 s
    Overall bit rate            : 13.3 Mb/s
    Movie name                  : Malcolm el de en medio T05E01 - CinemaniaHDD.Net
    Encoded date                : UTC 2020-08-19 23:28:34
    Writing application         : mkvmerge v46.0.0 ('No Deeper Escape') 64-bit
    Writing library             : libebml v1.3.10 + libmatroska v1.5.2

    Video
    ID                          : 1
    Format                      : AVC
    Format/Info                 : Advanced Video Codec
    Format profile              : High@L4
    Format settings             : CABAC / 4 Ref Frames
    Format settings, CABAC      : Yes
    Format settings, Reference  : 4 frames
    Codec ID                    : V_MPEG4/ISO/AVC
    Duration                    : 22 min 32 s
    Bit rate                    : 12.2 Mb/s
    Width                       : 1 920 pixels
    Height                      : 1 080 pixels
    Display aspect ratio        : 16:9
    Frame rate mode             : Constant
    Frame rate                  : 23.976 (24000/1001) FPS
    Color space                 : YUV
    Chroma subsampling          : 4:2:0
    Bit depth                   : 8 bits
    Scan type                   : Progressive
    Bits/(Pixel*Frame)          : 0.246
    Stream size                 : 1.93 GiB (92%)
    Title                       : CinemaniaHDD
    Default                     : Yes
    Forced                      : No
    Color range                 : Limited
    Color primaries             : BT.709
    Transfer characteristics    : BT.709
    Matrix coefficients         : BT.709

    Audio #1
    ID                          : 2
    Format                      : E-AC-3
    Format/Info                 : Enhanced AC-3
    Commercial name             : Dolby Digital Plus
    Codec ID                    : A_EAC3
    Duration                    : 22 min 32 s
    Bit rate mode               : Constant
    Bit rate                    : 224 kb/s
    Channel(s)                  : 2 channels
    Channel layout              : L R
    Sampling rate               : 48.0 kHz
    Frame rate                  : 31.250 FPS (1536 SPF)
    Compression mode            : Lossy
    Stream size                 : 36.1 MiB (2%)
    Title                       : Español latino [CinemaniaHDD]
    Language                    : Spanish
    Service kind                : Complete Main
    Default                     : Yes
    Forced                      : No

    Audio #2
    ID                          : 3
    Format                      : E-AC-3
    Format/Info                 : Enhanced AC-3
    Commercial name             : Dolby Digital Plus
    Codec ID                    : A_EAC3
    Duration                    : 22 min 32 s
    Bit rate mode               : Constant
    Bit rate                    : 224 kb/s
    Channel(s)                  : 2 channels
    Channel layout              : L R
    Sampling rate               : 48.0 kHz
    Frame rate                  : 31.250 FPS (1536 SPF)
    Compression mode            : Lossy
    Stream size                 : 36.1 MiB (2%)
    Title                       : Francés [CinemaniaHDD]
    Language                    : French
    Service kind                : Complete Main
    Default                     : No
    Forced                      : No

    Audio #3
    ID                          : 4
    Format                      : E-AC-3
    Format/Info                 : Enhanced AC-3
    Commercial name             : Dolby Digital Plus
    Codec ID                    : A_EAC3
    Duration                    : 22 min 32 s
    Bit rate mode               : Constant
    Bit rate                    : 640 kb/s
    Channel(s)                  : 6 channels
    Channel layout              : L R C LFE Ls Rs
    Sampling rate               : 48.0 kHz
    Frame rate                  : 31.250 FPS (1536 SPF)
    Compression mode            : Lossy
    Stream size                 : 103 MiB (5%)
    Title                       : Inglés [CinemaniaHDD]
    Language                    : English
    Service kind                : Complete Main
    Default                     : No
    Forced                      : No

    Text #1
    ID                          : 5
    Format                      : UTF-8
    Codec ID                    : S_TEXT/UTF8
    Codec ID/Info               : UTF-8 Plain Text
    Duration                    : 22 min 26 s
    Bit rate                    : 79 b/s
    Count of elements           : 374
    Stream size                 : 13.1 KiB (0%)
    Title                       : Español latino [CinemaniaHDD]
    Language                    : Spanish
    Default                     : No
    Forced                      : No

    Text #2
    ID                          : 6
    Format                      : UTF-8
    Codec ID                    : S_TEXT/UTF8
    Codec ID/Info               : UTF-8 Plain Text
    Duration                    : 22 min 26 s
    Bit rate                    : 75 b/s
    Count of elements           : 373
    Stream size                 : 12.3 KiB (0%)
    Title                       : Francés [CinemaniaHDD]
    Language                    : French
    Default                     : No
    Forced                      : No

    Text #3
    ID                          : 7
    Format                      : UTF-8
    Codec ID                    : S_TEXT/UTF8
    Codec ID/Info               : UTF-8 Plain Text
    Duration                    : 21 min 47 s
    Bit rate                    : 88 b/s
    Count of elements           : 502
    Stream size                 : 14.1 KiB (0%)
    Title                       : Inglés [CinemaniaHDD]
    Language                    : English
    Default                     : No
    Forced                      : No

     

  • Peso: 2.10 GiB GiB C/U --- 47.5 GiB en 22 Chapters.

Sinopsis

Serie de TV (2000-2006). Sitcom familiar que aborda los divertidos problemas y situaciones de una familia americana de clase media en la que el hijo Malcolm (Frankie Muniz) parece ser el único sensato… o al menos el único que da señales de cordura. La familia está compuesta por sus neuróticos padres Hal (Bryan Cranston) y Lois (Jane Kaczmarek), el hermano mayor Francis (Christopher Kennedy Masterson) y sus otros dos hermanos, Reese (Justin Berfield) y Dewey

APORTE ACTUALIZADO.

Español Latino E-AC3 2.0 AMZN – Francés E-AC3 2.0 AMZN – Inglés E-AC3 5.1 AMZN

Ficha técnica

Video trailer de la película

Enlaces de descarga

Rip de Bluray

Descargar Malcolm in the Middle (2004) Temporada 5 AMZN WEB-DL 1080p latino


Aportes de DPeliculasHDmega la pass es:dpeliculashdmega.org Aportes de CinemaniaHD la pass es:cinemaniahdd.com
Guardado en : Comedia , Series

Películas relacionadas

descargar Malcolm in the Middle (2004) Temporada 5 AMZN WEB-DL 1080p latino WEBDL 1080p gratis, Malcolm in the Middle (2004) Temporada 5 AMZN WEB-DL 1080p latino WEBDL mega 1 link, Malcolm in the Middle (2004) Temporada 5 AMZN WEB-DL 1080p latino WEBDL serie completa, descargar Malcolm in the Middle (2004) Temporada 5 AMZN WEB-DL 1080p latino WEBDL gratis en mega.

Malcolm in the Middle (2004) Temporada 5 AMZN WEB-DL 1080p latino pelicula full hd, Malcolm in the Middle (2004) Temporada 5 AMZN WEB-DL 1080p latino mega latino, Malcolm in the Middle (2004) Temporada 5 AMZN WEB-DL 1080p latino 4k latino, Malcolm in the Middle (2004) Temporada 5 AMZN WEB-DL 1080p latino pelicula completa, Malcolm in the Middle (2004) Temporada 5 AMZN WEB-DL 1080p latino descargar gratis, descargar Malcolm in the Middle (2004) Temporada 5 AMZN WEB-DL 1080p latino pelicula latino, Malcolm in the Middle (2004) Temporada 5 AMZN WEB-DL 1080p latino 1 link mega, Malcolm in the Middle (2004) Temporada 5 AMZN WEB-DL 1080p latino 1 link google drive, Malcolm in the Middle (2004) Temporada 5 AMZN WEB-DL 1080p latino hd 1080p latino.
Comentarios 8
  • Fabián Herrera - 23 enero, 2020

    Buenas noches muchas gracias es la mejor pag.para descargar sigan adelante felicitaciones porfavor podrían subir la temporada 6 y 7 en Full HD 1080p

    • CinemaniaHDD - 26 enero, 2020

      esque no hay mejor calidad que lo que subimos. el 1080p en la 6 y 7 americano no existe solo esta una version india pero no esta completa.

  • Erick - 26 diciembre, 2019

    Para cuando las ultimas dos temporadas? Por favor, me gusta mucho su trabajo, tanto en peliculas como en series 😀

    • CinemaniaHDD - 07 enero, 2020

      Paciencia, que si se subira completa.
      y en la mejor calidad existente

  • Diego - 23 diciembre, 2019

    disculpa, es muy pronto para preguntar, pero quería saber para cuando tendrás la temporada 6 ya que he descargado algunos capítulos de otra página, pero no se escucha tan bien como los capítulos que subes tú.

    Saludos.

    • CinemaniaHDD - 07 enero, 2020

      Publicada

  • pablo - 12 diciembre, 2019

    los acortadores de one drive, no funcionan. se quedan en un bucle infinito de i am human y get link. y no pasan de ahi.

    • CinemaniaHDD - 12 diciembre, 2019

      Esta todo bien, en esa opcion se tiene resolver el mismo proceso 7 veces para llegar a la carpeta donde estan todos los episodios.