Malcolm in the Middle (2003) Temporada 4 AMZN WEB-DL 1080p latino

1.563 vistas
1 estrella2 estrellas3 estrellas4 estrellas5 estrellas (8 votos, promedio: 4,75 de 5)
Cargando...

Información de Malcolm in the Middle (2003) Temporada 4 AMZN WEB-DL 1080p latino

Datos de la película

  • Calidad: WEBDL
  • Audio: Se especifica abajo de la Sinopsis
  • Subtitulos: Español Latino SRT - Ingles SRT
  • Resolución: 1920x1080
  • Formato: MKV
  • Codec: H.264
  • Encoder: cinemaniahdd
  • Mediainfo: Clic para Mostrar Datos Ver
  • Malcolm in the Middle T04E01 AMZN WEB-DL 1080p Latino [CNMNHDD].mkv
    Format                      : Matroska
    Format version              : Version 4
    File size                   : 2.34 GiB
    Duration                    : 22 min 2 s
    Overall bit rate            : 15.2 Mb/s
    Movie name                  : Malcolm el de en medio T04E01 - CinemaniaHDD.Net
    Encoded date                : UTC 2020-08-19 23:14:29
    Writing application         : mkvmerge v46.0.0 ('No Deeper Escape') 64-bit
    Writing library             : libebml v1.3.10 + libmatroska v1.5.2

    Video
    ID                          : 1
    Format                      : AVC
    Format/Info                 : Advanced Video Codec
    Format profile              : High@L4
    Format settings             : CABAC / 4 Ref Frames
    Format settings, CABAC      : Yes
    Format settings, Reference  : 4 frames
    Codec ID                    : V_MPEG4/ISO/AVC
    Duration                    : 22 min 2 s
    Bit rate                    : 14.1 Mb/s
    Width                       : 1 920 pixels
    Height                      : 1 080 pixels
    Display aspect ratio        : 16:9
    Frame rate mode             : Constant
    Frame rate                  : 23.976 (24000/1001) FPS
    Color space                 : YUV
    Chroma subsampling          : 4:2:0
    Bit depth                   : 8 bits
    Scan type                   : Progressive
    Bits/(Pixel*Frame)          : 0.284
    Stream size                 : 2.17 GiB (93%)
    Title                       : CinemaniaHDD
    Default                     : Yes
    Forced                      : No
    Color range                 : Limited
    Color primaries             : BT.709
    Transfer characteristics    : BT.709
    Matrix coefficients         : BT.709

    Audio #1
    ID                          : 2
    Format                      : E-AC-3
    Format/Info                 : Enhanced AC-3
    Commercial name             : Dolby Digital Plus
    Codec ID                    : A_EAC3
    Duration                    : 22 min 2 s
    Bit rate mode               : Constant
    Bit rate                    : 224 kb/s
    Channel(s)                  : 2 channels
    Channel layout              : L R
    Sampling rate               : 48.0 kHz
    Frame rate                  : 31.250 FPS (1536 SPF)
    Compression mode            : Lossy
    Stream size                 : 35.3 MiB (1%)
    Title                       : Español latino [CinemaniaHDD]
    Language                    : Spanish
    Service kind                : Complete Main
    Default                     : Yes
    Forced                      : No

    Audio #2
    ID                          : 3
    Format                      : E-AC-3
    Format/Info                 : Enhanced AC-3
    Commercial name             : Dolby Digital Plus
    Codec ID                    : A_EAC3
    Duration                    : 22 min 2 s
    Bit rate mode               : Constant
    Bit rate                    : 224 kb/s
    Channel(s)                  : 2 channels
    Channel layout              : L R
    Sampling rate               : 48.0 kHz
    Frame rate                  : 31.250 FPS (1536 SPF)
    Compression mode            : Lossy
    Stream size                 : 35.3 MiB (1%)
    Title                       : Francés [CinemaniaHDD]
    Language                    : French
    Service kind                : Complete Main
    Default                     : No
    Forced                      : No

    Audio #3
    ID                          : 4
    Format                      : E-AC-3
    Format/Info                 : Enhanced AC-3
    Commercial name             : Dolby Digital Plus
    Codec ID                    : A_EAC3
    Duration                    : 22 min 2 s
    Bit rate mode               : Constant
    Bit rate                    : 640 kb/s
    Channel(s)                  : 6 channels
    Channel layout              : L R C LFE Ls Rs
    Sampling rate               : 48.0 kHz
    Frame rate                  : 31.250 FPS (1536 SPF)
    Compression mode            : Lossy
    Stream size                 : 101 MiB (4%)
    Title                       : Inglés [CinemaniaHDD]
    Language                    : English
    Service kind                : Complete Main
    Default                     : No
    Forced                      : No

    Text #1
    ID                          : 5
    Format                      : UTF-8
    Codec ID                    : S_TEXT/UTF8
    Codec ID/Info               : UTF-8 Plain Text
    Duration                    : 21 min 55 s
    Bit rate                    : 93 b/s
    Count of elements           : 439
    Stream size                 : 14.9 KiB (0%)
    Title                       : Español latino [CinemaniaHDD]
    Language                    : Spanish
    Default                     : No
    Forced                      : No

    Text #2
    ID                          : 6
    Format                      : UTF-8
    Codec ID                    : S_TEXT/UTF8
    Codec ID/Info               : UTF-8 Plain Text
    Duration                    : 21 min 55 s
    Bit rate                    : 90 b/s
    Count of elements           : 443
    Stream size                 : 14.5 KiB (0%)
    Title                       : Francés [CinemaniaHDD]
    Language                    : French
    Default                     : No
    Forced                      : No

    Text #3
    ID                          : 7
    Format                      : UTF-8
    Codec ID                    : S_TEXT/UTF8
    Codec ID/Info               : UTF-8 Plain Text
    Duration                    : 21 min 10 s
    Bit rate                    : 106 b/s
    Count of elements           : 568
    Stream size                 : 16.5 KiB (0%)
    Title                       : Inglés [CinemaniaHDD]
    Language                    : English
    Default                     : No
    Forced                      : No

     

  • Peso: 2.34 GiB GiB C/U --- 50.3 GiB en 22 Chapters.

Sinopsis

Serie de TV (2000-2006). Sitcom familiar que aborda los divertidos problemas y situaciones de una familia americana de clase media en la que el hijo Malcolm (Frankie Muniz) parece ser el único sensato… o al menos el único que da señales de cordura. La familia está compuesta por sus neuróticos padres Hal (Bryan Cranston) y Lois (Jane Kaczmarek), el hermano mayor Francis (Christopher Kennedy Masterson) y sus otros dos hermanos, Reese (Justin Berfield) y Dewey

APORTE ACTUALIZADO.

Español Latino E-AC3 2.0 AMZN – Francés E-AC3 2.0 AMZN – Inglés E-AC3 5.1 AMZN

Ficha técnica

  • Titulo original: Malcolm in the Middle
  • Fecha de lanzamiento: 09-01-2000
  • Género: Series, Sin categoría
  • Puntuación: 4.8 8 votos
  • Duración:
    0h 25m

Video trailer de la película

Enlaces de descarga

Rip de Bluray

Descargar Malcolm in the Middle (2003) Temporada 4 AMZN WEB-DL 1080p latino




Aportes de DPeliculasHDmega la pass es:dpeliculashdmega.org Aportes de CinemaniaHD la pass es:cinemaniahdd.com
Guardado en : Series , Sin categoría

Películas relacionadas

Comentarios 8
  • Arturo Herrera - 23 mayo, 2020

    Buena noche, estaba viendo la serie en inglés con subtitulos, llegué a el episodio 12 y 18 de esta temporada y no tiene subtitulos 🙁

    • CinemaniaHDD - 15 agosto, 2020

      Hola, de donde se extrajo el audio y subtitulos algunos capitulos no tenian los subtitulos.
      pronto se subira una version nueva y ya estara todo correcto

  • xaokan - 09 enero, 2020

    el episodio 20 tiene un error al final como que esta cortado

    • CinemaniaHDD - 09 enero, 2020

      Ya se reparo.

  • NENGO - 09 enero, 2020

    Estimado, estoy muy agradecido por traer esta serie en buena calidad. Es posible que pueda corregir el capitulo 20 (El bebé I 4×20), se queda pegado en las parte final.

    Saludos

    • CinemaniaHDD - 09 enero, 2020

      Verificando…

  • Diego - 26 noviembre, 2019

    muy buena calidad de los capítulos… para cuando la temporada 5?

    • CinemaniaHDD - 11 diciembre, 2019

      En Proceso…