×

¿Problemas para descargar con Mozilla, EDGE? Deshabilita la opción "Abrir vinculos en una pestaña nueva" tal como lo muestra ésta imagen.

Malcolm in the Middle (2000) Primera Temporada AMZN WEB-DL 1080p Latino

5.714 vistas

Información de Malcolm in the Middle (2000) Primera Temporada AMZN WEB-DL 1080p Latino

Datos de la película

  • Calidad: WEBDL
  • Audio: Se especifica abajo de la Sinopsis
  • Subtitulos: Español Latino SRT - Ingles SRT
  • Resolución: 1920x1080
  • Formato: MKV
  • Codec: H.264
  • Encoder: cinemaniahdd
  • Mediainfo: Clic para Mostrar Datos Ver
  • Malcolm in the Middle T01E01 AMZN WEB-DL 1080p Latino [CNMNHDD].mkv
    Format                      : Matroska
    Format version              : Version 4
    File size                   : 2.42 GiB
    Duration                    : 22 min 34 s
    Overall bit rate            : 15.3 Mb/s
    Movie name                  : Malcolm el de en medio T01E01 - CinemaniaHDD.Net
    Encoded date                : UTC 2020-08-14 19:09:12
    Writing application         : mkvmerge v46.0.0 ('No Deeper Escape') 64-bit
    Writing library             : libebml v1.3.10 + libmatroska v1.5.2

    Video
    ID                          : 1
    Format                      : AVC
    Format/Info                 : Advanced Video Codec
    Format profile              : High@L4
    Format settings             : CABAC / 4 Ref Frames
    Format settings, CABAC      : Yes
    Format settings, Reference  : 4 frames
    Codec ID                    : V_MPEG4/ISO/AVC
    Duration                    : 22 min 34 s
    Bit rate                    : 14.2 Mb/s
    Width                       : 1 920 pixels
    Height                      : 1 080 pixels
    Display aspect ratio        : 16:9
    Frame rate mode             : Constant
    Frame rate                  : 23.976 (24000/1001) FPS
    Color space                 : YUV
    Chroma subsampling          : 4:2:0
    Bit depth                   : 8 bits
    Scan type                   : Progressive
    Bits/(Pixel*Frame)          : 0.286
    Stream size                 : 2.24 GiB (93%)
    Title                       : CinemaniaHDD
    Default                     : Yes
    Forced                      : No
    Color range                 : Limited
    Color primaries             : BT.709
    Transfer characteristics    : BT.709
    Matrix coefficients         : BT.709

    Audio #1
    ID                          : 2
    Format                      : E-AC-3
    Format/Info                 : Enhanced AC-3
    Commercial name             : Dolby Digital Plus
    Codec ID                    : A_EAC3
    Duration                    : 22 min 34 s
    Bit rate mode               : Constant
    Bit rate                    : 224 kb/s
    Channel(s)                  : 2 channels
    Channel layout              : L R
    Sampling rate               : 48.0 kHz
    Frame rate                  : 31.250 FPS (1536 SPF)
    Compression mode            : Lossy
    Stream size                 : 36.2 MiB (1%)
    Title                       : Español latino [CinemaniaHDD]
    Language                    : Spanish
    Service kind                : Complete Main
    Default                     : Yes
    Forced                      : No

    Audio #2
    ID                          : 3
    Format                      : E-AC-3
    Format/Info                 : Enhanced AC-3
    Commercial name             : Dolby Digital Plus
    Codec ID                    : A_EAC3
    Duration                    : 22 min 34 s
    Bit rate mode               : Constant
    Bit rate                    : 224 kb/s
    Channel(s)                  : 2 channels
    Channel layout              : L R
    Sampling rate               : 48.0 kHz
    Frame rate                  : 31.250 FPS (1536 SPF)
    Compression mode            : Lossy
    Stream size                 : 36.2 MiB (1%)
    Title                       : Francés [CinemaniaHDD]
    Language                    : French
    Service kind                : Complete Main
    Default                     : No
    Forced                      : No

    Audio #3
    ID                          : 4
    Format                      : E-AC-3
    Format/Info                 : Enhanced AC-3
    Commercial name             : Dolby Digital Plus
    Codec ID                    : A_EAC3
    Duration                    : 22 min 34 s
    Bit rate mode               : Constant
    Bit rate                    : 640 kb/s
    Channel(s)                  : 6 channels
    Channel layout              : L R C LFE Ls Rs
    Sampling rate               : 48.0 kHz
    Frame rate                  : 31.250 FPS (1536 SPF)
    Compression mode            : Lossy
    Stream size                 : 103 MiB (4%)
    Title                       : Inglés [CinemaniaHDD]
    Language                    : English
    Service kind                : Complete Main
    Default                     : No
    Forced                      : No

    Text #1
    ID                          : 5
    Format                      : UTF-8
    Codec ID                    : S_TEXT/UTF8
    Codec ID/Info               : UTF-8 Plain Text
    Duration                    : 22 min 27 s
    Bit rate                    : 82 b/s
    Count of elements           : 385
    Stream size                 : 13.6 KiB (0%)
    Title                       : Español latino [CinemaniaHDD]
    Language                    : Spanish
    Default                     : No
    Forced                      : No

    Text #2
    ID                          : 6
    Format                      : UTF-8
    Codec ID                    : S_TEXT/UTF8
    Codec ID/Info               : UTF-8 Plain Text
    Duration                    : 22 min 31 s
    Bit rate                    : 77 b/s
    Count of elements           : 443
    Stream size                 : 12.8 KiB (0%)
    Title                       : Francés [CinemaniaHDD]
    Language                    : French
    Default                     : No
    Forced                      : No

    Text #3
    ID                          : 7
    Format                      : UTF-8
    Codec ID                    : S_TEXT/UTF8
    Codec ID/Info               : UTF-8 Plain Text
    Duration                    : 22 min 24 s
    Bit rate                    : 94 b/s
    Count of elements           : 551
    Stream size                 : 15.5 KiB (0%)
    Title                       : Inglés [CinemaniaHDD]
    Language                    : English
    Default                     : No
    Forced                      : No

     

  • Peso: 2.42 GiB C/U -- 38.2 GiB in 16 Chapters.

Sinopsis

Serie de TV (2000-2006). Sitcom familiar que aborda los divertidos problemas y situaciones de una familia americana de clase media en la que el hijo Malcolm (Frankie Muniz) parece ser el único sensato… o al menos el único que da señales de cordura. La familia está compuesta por sus neuróticos padres Hal (Bryan Cranston) y Lois (Jane Kaczmarek), el hermano mayor Francis (Christopher Kennedy Masterson) y sus otros dos hermanos, Reese (Justin Berfield) y Dewey

RE-SUBIDO.

Español Latino E-AC3 2.0 AMZN – Francés E-AC3 2.0 AMZN – Inglés E-AC3 5.1 AMZN

Ficha técnica

Video trailer de la película

Enlaces de descarga

Rip de Bluray

Descargar Malcolm in the Middle (2000) Primera Temporada AMZN WEB-DL 1080p Latino




Aportes de DPeliculasHDmega la pass es:dpeliculashdmega.org Aportes de CinemaniaHD la pass es:cinemaniahdd.com Aportes recientes:cinemaniahdd.net

Películas relacionadas

  • Perra vida (2024) AMZN WEB-DL 1080p Latino

    Perra vida (2024) AMZN WEB-DL 1080p Latino

    2024
    Perra vida (2024) AMZN WEB-DL 1080p Latino

    1h 48m 2024

    Descargar Perra vida (2024) AMZN WEB-DL 1080p Latino. Para contentar a su hija, Romina (una abogada obsesiva...

    Director: Gabriela Sobarzo

    Género: Comedia

    Actores: Sergio Chamy

  • The Veil (2024) Temporada 1 WEB-DL 1080p Latino

    The Veil (2024) Temporada 1 WEB-DL 1080p Latino

    2024
    The Veil (2024) Temporada 1 WEB-DL 1080p Latino

    0h 0m 2024

    Descargar The Veil (2024) Temporada 1 WEB-DL 1080p Latino. La relación entre dos mujeres que arman un...

    Director: Steven Knight

    Género: Drama

    Actores: Yumna Marwan

  • Kung Fu Panda 4 (2024) 1080p Latino-CMHDD

    Kung Fu Panda 4 (2024) 1080p Latino-CMHDD

    2024
    Kung Fu Panda 4 (2024) 1080p Latino-CMHDD

    1h 34m 2024

    Descargar Kung Fu Panda 4 (2024) 1080p Latino-CMHDD. Po se prepara para ser el líder espiritual del...

    Director: Stephanie Ma Stine

    Género: Acción

    Actores: Viola Davis

  • Kung Fu Panda 4 (2024) Full HD 1080p Latino-CMHDD

    Kung Fu Panda 4 (2024) Full HD 1080p Latino-CMHDD

    2024
    Kung Fu Panda 4 (2024) Full HD 1080p Latino-CMHDD

    1h 34m 2024

    Descargar Kung Fu Panda 4 (2024) Full HD 1080p Latino-CMHDD. Po se prepara para ser el líder espiritual...

    Director: Stephanie Ma Stine

    Género: Acción

    Actores: Viola Davis

descargar Malcolm in the Middle (2000) Primera Temporada AMZN WEB-DL 1080p Latino WEBDL 1080p gratis, Malcolm in the Middle (2000) Primera Temporada AMZN WEB-DL 1080p Latino WEBDL mega 1 link, Malcolm in the Middle (2000) Primera Temporada AMZN WEB-DL 1080p Latino WEBDL serie completa, descargar Malcolm in the Middle (2000) Primera Temporada AMZN WEB-DL 1080p Latino WEBDL gratis en mega.

Malcolm in the Middle (2000) Primera Temporada AMZN WEB-DL 1080p Latino pelicula full hd, Malcolm in the Middle (2000) Primera Temporada AMZN WEB-DL 1080p Latino mega latino, Malcolm in the Middle (2000) Primera Temporada AMZN WEB-DL 1080p Latino 4k latino, Malcolm in the Middle (2000) Primera Temporada AMZN WEB-DL 1080p Latino pelicula completa, Malcolm in the Middle (2000) Primera Temporada AMZN WEB-DL 1080p Latino descargar gratis, descargar Malcolm in the Middle (2000) Primera Temporada AMZN WEB-DL 1080p Latino pelicula latino, Malcolm in the Middle (2000) Primera Temporada AMZN WEB-DL 1080p Latino 1 link mega, Malcolm in the Middle (2000) Primera Temporada AMZN WEB-DL 1080p Latino 1 link google drive, Malcolm in the Middle (2000) Primera Temporada AMZN WEB-DL 1080p Latino hd 1080p latino.
Comentarios 15