Major League (1989) REMUX 1080p Latino – CMHDD

39 vistas
1 estrella2 estrellas3 estrellas4 estrellas5 estrellas (Ninguna valoración todavía)
Cargando...

Información de Major League (1989) REMUX 1080p Latino – CMHDD

Datos de la película

  • Calidad: Full 1080p
  • Audio: Se especifica abajo de la Sinopsis
  • Subtitulos: Español Latino PGS
  • Resolución: 1920x1080p
  • Formato: MKV
  • Codec: H.264
  • Encoder: Dracarys
  • Mediainfo: Clic para Mostrar Datos Ver
  • Format                      : Matroska
    Format version              : Version 4
    File size                   : 26.9 GiB
    Duration                    : 1 h 46 min
    Overall bit rate mode       : Variable
    Overall bit rate            : 36.1 Mb/s
    Movie name                  : Major League (1989) REMUX 1080p Latino - CMHDD
    Encoded date                : UTC 2021-07-15 05:22:01
    Writing application         : mkvmerge v56.1.0 ('My Friend') 64-bit
    Writing library             : libebml v1.4.2 + libmatroska v1.6.4
    Cover                       : Yes
    Attachments                 : cover.jpg

    Video
    ID                          : 1
    ID in the original source m : 4113 (0x1011)
    Format                      : AVC
    Format/Info                 : Advanced Video Codec
    Format profile              : High@L4.1
    Format settings             : CABAC / 2 Ref Frames
    Format settings, CABAC      : Yes
    Format settings, Reference  : 2 frames
    Codec ID                    : V_MPEG4/ISO/AVC
    Duration                    : 1 h 46 min
    Bit rate mode               : Variable
    Bit rate                    : 31.8 Mb/s
    Width                       : 1 920 pixels
    Height                      : 1 080 pixels
    Display aspect ratio        : 16:9
    Frame rate mode             : Constant
    Frame rate                  : 23.976 (24000/1001) FPS
    Color space                 : YUV
    Chroma subsampling          : 4:2:0
    Bit depth                   : 8 bits
    Scan type                   : Progressive
    Bits/(Pixel*Frame)          : 0.639
    Stream size                 : 23.7 GiB (88%)
    Default                     : Yes
    Forced                      : No
    Original source medium      : Blu-ray

    Audio #1
    ID                          : 2
    ID in the original source m : 4352 (0x1100)
    Format                      : MLP FBA
    Format/Info                 : Meridian Lossless Packing FBA
    Commercial name             : Dolby TrueHD
    Codec ID                    : A_TRUEHD
    Duration                    : 1 h 46 min
    Bit rate mode               : Variable
    Bit rate                    : 3 411 kb/s
    Maximum bit rate            : 4 752 kb/s
    Channel(s)                  : 6 channels
    Channel layout              : L R C LFE Ls Rs
    Sampling rate               : 48.0 kHz
    Frame rate                  : 1 200.000 FPS (40 SPF)
    Compression mode            : Lossless
    Stream size                 : 2.54 GiB (9%)
    Language                    : English
    Default                     : No
    Forced                      : No
    Original source medium      : Blu-ray

    Audio #2
    ID                          : 3
    ID in the original source m : 4352 (0x1100)
    Format                      : AC-3
    Format/Info                 : Audio Coding 3
    Commercial name             : Dolby Digital
    Codec ID                    : A_AC3
    Duration                    : 1 h 46 min
    Bit rate mode               : Constant
    Bit rate                    : 640 kb/s
    Channel(s)                  : 6 channels
    Channel layout              : L R C LFE Ls Rs
    Sampling rate               : 48.0 kHz
    Frame rate                  : 31.250 FPS (1536 SPF)
    Compression mode            : Lossy
    Stream size                 : 488 MiB (2%)
    Language                    : English
    Service kind                : Complete Main
    Default                     : No
    Forced                      : No
    Original source medium      : Blu-ray

    Audio #3
    ID                          : 4
    ID in the original source m : 4354 (0x1102)
    Format                      : AC-3
    Format/Info                 : Audio Coding 3
    Commercial name             : Dolby Digital
    Codec ID                    : A_AC3
    Duration                    : 1 h 46 min
    Bit rate mode               : Constant
    Bit rate                    : 224 kb/s
    Channel(s)                  : 2 channels
    Channel layout              : L R
    Sampling rate               : 48.0 kHz
    Frame rate                  : 31.250 FPS (1536 SPF)
    Compression mode            : Lossy
    Stream size                 : 171 MiB (1%)
    Language                    : Spanish
    Service kind                : Complete Main
    Default                     : Yes
    Forced                      : No
    Original source medium      : Blu-ray

    Text
    ID                          : 5
    ID in the original source m : 4611 (0x1203)
    Format                      : PGS
    Muxing mode                 : zlib
    Codec ID                    : S_HDMV/PGS
    Codec ID/Info               : Picture based subtitle format used on BDs/HD-DVDs
    Duration                    : 1 h 39 min
    Bit rate                    : 39.0 kb/s
    Count of elements           : 2774
    Stream size                 : 27.7 MiB (0%)
    Language                    : Spanish
    Default                     : No
    Forced                      : No
    Original source medium      : Blu-ray

    Menu
    00:00:00.000                : Chapter 01
    00:03:26.497                : Chapter 02
    00:06:32.266                : Chapter 03
    00:12:41.719                : Chapter 04
    00:17:12.031                : Chapter 05
    00:25:48.672                : Chapter 06
    00:33:29.257                : Chapter 07
    00:42:08.025                : Chapter 08
    00:50:58.305                : Chapter 09
    00:56:07.739                : Chapter 10
    01:00:56.277                : Chapter 11
    01:07:58.532                : Chapter 12
    01:14:29.256                : Chapter 13
    01:19:52.162                : Chapter 14
    01:27:51.099                : Chapter 15
    01:34:13.022                : Chapter 16
    01:40:39.533                : Chapter 17

  • Peso: 26.9 GiB

Sinopsis

Los Indians de Cleveland son el peor equipo de béisbol de la liga nacional. Su nueva propietaria, una antigua show girl, quiere que acaben los últimos de la liga para poder trasladarse a Miami, pero ahora el equipo empieza a ganar.

 

Latino: AC3 2.0  –  Ingles: TrueHD 7.1 + AC3 5.1

Ficha técnica

  • Titulo original: Major League
  • Fecha de lanzamiento: 16-02-1989 (United States of America)
  • Director: David S. Ward
  • Género: Comedia
  • Puntuación: 0.0 0 votos
  • Duración:
    1h 47m

Video trailer de la película

Enlaces de descarga

Rip de Bluray

Descargar Major League (1989) REMUX 1080p Latino – CMHDD


Aportes de DPeliculasHDmega la pass es:dpeliculashdmega.org Aportes de CinemaniaHD la pass es:cinemaniahdd.com
Guardado en : Comedia

Películas relacionadas

  • Pixie (2020) HBOMAX WEB-DL 1080p Latino

    Pixie (2020) HBOMAX WEB-DL 1080p Latino

    2020
    Pixie (2020) HBOMAX WEB-DL 1080p Latino

    5.0 1h 34m 2020

    Para vengar la muerte de su madre, Pixie planea un atraco, pero debe huir a través de Irlanda de los...

    Director: Stephen Darragh

    Género: Comedia

    Actores: Turlough Convery

  • Space Jam: Una Nueva Era (2021) HD 1080p Latino

    Space Jam: Una Nueva Era (2021) HD 1080p Latino

    2021
    Space Jam: Una Nueva Era (2021) HD 1080p Latino

    0.0 1h 55m 2021

    Descargar Space Jam: Una Nueva Era (2021) HD 1080p Latino. ecuela de la cinta original de 1996, Space...

    Director: Rhys Summerhayes

    Género: Animación

    Actores: Zendaya

  • No, porque me enamoro (2020) AMZN Web-DL 1080p Latino

    No, porque me enamoro (2020) AMZN Web-DL 1080p Latino

    2020
    No, porque me enamoro (2020) AMZN Web-DL 1080p Latino

    0.0 1h 40m 2020

    Descargar No, porque me enamoro (2020) AMZN Web-DL 1080p Latino. Daniela (Sofia de Llaca), una chica...

    Director: Santiago Limón

    Género: Comedia

    Actores: Sofía De Llaca Mata

  • La Excepcion A La Regla (2016) REMUX 1080p Latino

    La Excepcion A La Regla (2016) REMUX 1080p Latino

    2016
    La Excepcion A La Regla (2016) REMUX 1080p Latino

    5.0 2h 6m 2016

    Descargar La Excepcion A La Regla (2016) REMUX 1080p Latino. Hollywood, año 1958. La joven baptista...

    Director: Warren Beatty

    Género: Comedia

    Actores: Warren Beatty

Major League (1989) REMUX 1080p Latino – CMHDD pelicula full hd, Major League (1989) REMUX 1080p Latino – CMHDD mega latino, Major League (1989) REMUX 1080p Latino – CMHDD 4k latino, Major League (1989) REMUX 1080p Latino – CMHDD pelicula completa, Major League (1989) REMUX 1080p Latino – CMHDD descargar gratis, descargar Major League (1989) REMUX 1080p Latino – CMHDD pelicula latino, Major League (1989) REMUX 1080p Latino – CMHDD 1 link mega, Major League (1989) REMUX 1080p Latino – CMHDD 1 link google drive, Major League (1989) REMUX 1080p Latino – CMHDD hd 1080p latino.
Comentarios 0