×

¿Problemas para descargar con Mozilla, EDGE? Deshabilita la opción "Abrir vinculos en una pestaña nueva" tal como lo muestra ésta imagen.

Mainstream Nadie Especial (2021) PLACEBO Full HD 1080p Latino

828 vistas

Información de Mainstream Nadie Especial (2021) PLACEBO Full HD 1080p Latino

Datos de la película

  • Calidad: Full 1080p
  • Audio: Español Latino AC3 5.1 WEB-DL - Ingles DTS 5.1 BLURAY
  • Subtitulos: Español Latino SRT- FORZADOS SRT
  • Resolución: 1920x1080p
  • Formato: MKV
  • Codec: H.264
  • Encoder: Melkor
  • Mediainfo: Clic para Mostrar Datos Ver
  • Mainstream (2021) PLACEBO 1080p Latino.mkv
    Format                      : Matroska
    Format version              : Version 4
    File size                   : 4.98 GiB
    Duration                    : 1 h 34 min
    Overall bit rate            : 7 534 kb/s
    Movie name                  : Mainstream (2021) CinemaniaHDD.Net
    Encoded date                : UTC 2022-04-03 23:06:39
    Writing application         : mkvmerge v56.1.0 ('My Friend') 64-bit
    Writing library             : libebml v1.4.2 + libmatroska v1.6.4
    Attachments                 : CINEMANIAHD.png

    Video
    ID                          : 1
    Format                      : AVC
    Format/Info                 : Advanced Video Codec
    Format profile              : High@L4.1
    Format settings             : CABAC / 4 Ref Frames
    Format settings, CABAC      : Yes
    Format settings, Reference  : 4 frames
    Codec ID                    : V_MPEG4/ISO/AVC
    Duration                    : 1 h 34 min
    Bit rate                    : 5 560 kb/s
    Width                       : 1 920 pixels
    Height                      : 1 080 pixels
    Display aspect ratio        : 16:9
    Frame rate mode             : Constant
    Frame rate                  : 23.976 (24000/1001) FPS
    Color space                 : YUV
    Chroma subsampling          : 4:2:0
    Bit depth                   : 8 bits
    Scan type                   : Progressive
    Bits/(Pixel*Frame)          : 0.112
    Stream size                 : 3.68 GiB (74%)
    Title                       : Full HD1080p [CinemaniaHDD]
    Writing library             : x264 core 163 r3059 b684ebe0
    Encoding settings           : cabac=1 / ref=4 / deblock=1:0:0 / analyse=0x3:0x133 / me=tesa / subme=11 / psy=1 / psy_rd=1.00:0.00 / mixed_ref=1 / me_range=24 / chroma_me=1 / trellis=2 / 8x8dct=1 / cqm=0 / deadzone=21,11 / fast_pskip=0 / chroma_qp_offset=-2 / threads=24 / lookahead_threads=6 / sliced_threads=0 / nr=0 / decimate=1 / interlaced=0 / bluray_compat=0 / constrained_intra=0 / bframes=16 / b_pyramid=2 / b_adapt=2 / b_bias=0 / direct=3 / weightb=1 / open_gop=0 / weightp=2 / keyint=240 / keyint_min=24 / scenecut=40 / intra_refresh=0 / rc_lookahead=60 / rc=crf / mbtree=1 / crf=19.0 / qcomp=0.60 / qpmin=0 / qpmax=69 / qpstep=4 / vbv_maxrate=62500 / vbv_bufsize=78125 / crf_max=0.0 / nal_hrd=none / filler=0 / ip_ratio=1.40 / aq=1:1.00
    Default                     : Yes
    Forced                      : Yes
    Color range                 : Limited
    Color primaries             : BT.709
    Transfer characteristics    : BT.709
    Matrix coefficients         : BT.709

    Audio #1
    ID                          : 2
    Format                      : AC-3
    Format/Info                 : Audio Coding 3
    Commercial name             : Dolby Digital
    Codec ID                    : A_AC3
    Duration                    : 1 h 34 min
    Bit rate mode               : Constant
    Bit rate                    : 448 kb/s
    Channel(s)                  : 6 channels
    Channel layout              : L R C LFE Ls Rs
    Sampling rate               : 48.0 kHz
    Frame rate                  : 31.250 FPS (1536 SPF)
    Compression mode            : Lossy
    Stream size                 : 303 MiB (6%)
    Title                       : Español Latino [CinemaniaHDD]
    Language                    : Spanish
    Service kind                : Complete Main
    Default                     : Yes
    Forced                      : Yes

    Audio #2
    ID                          : 3
    Format                      : DTS
    Format/Info                 : Digital Theater Systems
    Codec ID                    : A_DTS
    Duration                    : 1 h 34 min
    Bit rate mode               : Constant
    Bit rate                    : 1 509 kb/s
    Channel(s)                  : 6 channels
    Channel layout              : C L R Ls Rs LFE
    Sampling rate               : 48.0 kHz
    Frame rate                  : 93.750 FPS (512 SPF)
    Bit depth                   : 24 bits
    Compression mode            : Lossy
    Stream size                 : 1 022 MiB (20%)
    Title                       : Ingles [CinemaniaHDD]
    Language                    : English
    Default                     : No
    Forced                      : No

    Text #1
    ID                          : 4
    Format                      : UTF-8
    Codec ID                    : S_TEXT/UTF8
    Codec ID/Info               : UTF-8 Plain Text
    Duration                    : 1 h 9 min
    Bit rate                    : 1 b/s
    Count of elements           : 47
    Stream size                 : 885 Bytes (0%)
    Title                       : Forzados-SRT [CinemaniaHDD]
    Language                    : Spanish
    Default                     : Yes
    Forced                      : Yes

    Text #2
    ID                          : 5
    Format                      : UTF-8
    Codec ID                    : S_TEXT/UTF8
    Codec ID/Info               : UTF-8 Plain Text
    Duration                    : 1 h 28 min
    Bit rate                    : 66 b/s
    Count of elements           : 1305
    Stream size                 : 43.0 KiB (0%)
    Title                       : Español-SRT [CinemaniaHDD]
    Language                    : Spanish
    Default                     : No
    Forced                      : No

    Text #3
    ID                          : 6
    Format                      : PGS
    Muxing mode                 : zlib
    Codec ID                    : S_HDMV/PGS
    Codec ID/Info               : Picture based subtitle format used on BDs/HD-DVDs
    Duration                    : 1 h 34 min
    Bit rate                    : 35.3 kb/s
    Count of elements           : 4230
    Stream size                 : 23.9 MiB (0%)
    Title                       : Ingles [CinemaniaHDD]
    Language                    : English
    Default                     : No
    Forced                      : No

    Menu
    00:00:00.000                : Chapter 01
    00:12:14.025                : Chapter 02
    00:20:37.903                : Chapter 03
    00:30:59.149                : Chapter 04
    00:39:45.967                : Chapter 05
    00:51:08.983                : Chapter 06
    01:09:16.402                : Chapter 07
    01:29:02.879                : Chapter 08

  • Peso: 4.98 GiB

Sinopsis

Descargar Mainstream Nadie Especial (2021) PLACEBO Full HD 1080p Latino. Una mujer joven (Maya Hawke) cree que encontró el camino hacia la fama en Internet cuando comienza a hacer videos de Youtube con un extraño carismático (Andrew Garfield) – hasta que el lado oscuro de la celebridad viral amenaza con arruinarlos.

Ficha técnica

Video trailer de la película

Enlaces de descarga

Rip de Bluray

Descargar Mainstream Nadie Especial (2021) PLACEBO Full HD 1080p Latino




Aportes de DPeliculasHDmega la pass es:dpeliculashdmega.org Aportes de CinemaniaHD la pass es:cinemaniahdd.com

Películas relacionadas

  • Willow (2022) Temporada 1 WEB-DL 1080p Latino

    Willow (2022) Temporada 1 WEB-DL 1080p Latino

    2022
    Willow (2022) Temporada 1 WEB-DL 1080p Latino

    0h 0m 2022

    Descargar Willow (2022) Temporada 1 WEB-DL 1080p Latino. Veinte años después de vencer a la reina Bavmorda,...

    Género: Action & Adventure

    Actores: Warwick Davis

  • Quantum Leap (2022) Temporada 1 WEB-DL 1080p Latino

    Quantum Leap (2022) Temporada 1 WEB-DL 1080p Latino

    2022
    Quantum Leap (2022) Temporada 1 WEB-DL 1080p Latino

    0h 43m 2022

    Han pasado 27 años desde que el Dr. Sam Beckett pisó el acelerador Quantum Leap y desapareció. Ahora...

    Director: Donald P. Bellisario

    Género: Drama

    Actores: Raymond Lee

  • Shrek 2 (2004) REMUX 4K HDR Latino – CMHDD

    Shrek 2 (2004) REMUX 4K HDR Latino – CMHDD

    2004
    Shrek 2 (2004) REMUX 4K HDR Latino – CMHDD

    1h 32m 2004

    Cuando Shrek y la princesa Fiona regresan de su luna de miel, los padres de ella los invitan a visitar...

    Director: Matt Aspbury

    Género: Animación

    Actores: Wendy Bilanski

descargar Mainstream Nadie Especial (2021) PLACEBO Full HD 1080p Latino Full 1080p 1080p gratis, Mainstream Nadie Especial (2021) PLACEBO Full HD 1080p Latino Full 1080p mega 1 link, Mainstream Nadie Especial (2021) PLACEBO Full HD 1080p Latino Full 1080p pelicula completa, descargar Mainstream Nadie Especial (2021) PLACEBO Full HD 1080p Latino Full 1080p gratis en mega.

Mainstream Nadie Especial (2021) PLACEBO Full HD 1080p Latino pelicula full hd, Mainstream Nadie Especial (2021) PLACEBO Full HD 1080p Latino mega latino, Mainstream Nadie Especial (2021) PLACEBO Full HD 1080p Latino 4k latino, Mainstream Nadie Especial (2021) PLACEBO Full HD 1080p Latino pelicula completa, Mainstream Nadie Especial (2021) PLACEBO Full HD 1080p Latino descargar gratis, descargar Mainstream Nadie Especial (2021) PLACEBO Full HD 1080p Latino pelicula latino, Mainstream Nadie Especial (2021) PLACEBO Full HD 1080p Latino 1 link mega, Mainstream Nadie Especial (2021) PLACEBO Full HD 1080p Latino 1 link google drive, Mainstream Nadie Especial (2021) PLACEBO Full HD 1080p Latino hd 1080p latino.
Comentarios 0