×

¿Problemas para descargar con Mozilla, EDGE? Deshabilita la opción "Abrir vinculos en una pestaña nueva" tal como lo muestra ésta imagen.

Maigret (2022) AMZN WEB-DL 1080p Latino

149 vistas

Información de Maigret (2022) AMZN WEB-DL 1080p Latino

Datos de la película

  • Calidad: 1080p
  • Audio: Español Latino AC3 5.1 WEB-DL - Ingles AC3 5.1 WEB-DL
  • Subtitulos: Español Latino SRT- FORZADOS SRT
  • Resolución: 1920x800
  • Formato: MKV
  • Codec: H.264
  • Encoder: cinemaniahdd
  • Mediainfo: Clic para Mostrar Datos Ver
  • Maigret (2022) AMZN WEB-DL 1080p Latino [CNMNHDD].mkv
    Format                      : Matroska
    Format version              : Version 4
    File size                   : 3.47 GiB
    Duration                    : 1 h 28 min
    Overall bit rate            : 5 622 kb/s
    Movie name                  : Maigret y la joven muerta (2022) [1080p] - CinemaniaHDD.Net
    Encoded date                : UTC 2023-11-10 22:50:01
    Writing application         : mkvmerge v56.1.0 ('My Friend') 64-bit
    Writing library             : libebml v1.4.2 + libmatroska v1.6.4

    Video
    ID                          : 1
    Format                      : AVC
    Format/Info                 : Advanced Video Codec
    Format profile              : High@L4
    Format settings             : CABAC / 4 Ref Frames
    Format settings, CABAC      : Yes
    Format settings, Reference  : 4 frames
    Codec ID                    : V_MPEG4/ISO/AVC
    Duration                    : 1 h 28 min
    Bit rate mode               : Constant
    Bit rate                    : 3 699 kb/s
    Nominal bit rate            : 10 000 kb/s
    Width                       : 1 920 pixels
    Height                      : 800 pixels
    Display aspect ratio        : 2.40:1
    Frame rate mode             : Constant
    Frame rate                  : 24.000 FPS
    Color space                 : YUV
    Chroma subsampling          : 4:2:0
    Bit depth                   : 8 bits
    Scan type                   : Progressive
    Bits/(Pixel*Frame)          : 0.100
    Stream size                 : 2.29 GiB (66%)
    Title                       : CinemaniaHDD
    Default                     : Yes
    Forced                      : No
    Color range                 : Limited
    Color primaries             : BT.709
    Transfer characteristics    : BT.709
    Matrix coefficients         : BT.709

    Audio #1
    ID                          : 2
    Format                      : AC-3
    Format/Info                 : Audio Coding 3
    Commercial name             : Dolby Digital
    Codec ID                    : A_AC3
    Duration                    : 1 h 28 min
    Bit rate mode               : Constant
    Bit rate                    : 640 kb/s
    Channel(s)                  : 6 channels
    Channel layout              : L R C LFE Ls Rs
    Sampling rate               : 48.0 kHz
    Frame rate                  : 31.250 FPS (1536 SPF)
    Compression mode            : Lossy
    Stream size                 : 405 MiB (11%)
    Title                       : Español Latino [CinemaniaHDD]
    Language                    : Spanish
    Service kind                : Complete Main
    Default                     : Yes
    Forced                      : No

    Audio #2
    ID                          : 3
    Format                      : E-AC-3
    Format/Info                 : Enhanced AC-3
    Commercial name             : Dolby Digital Plus
    Codec ID                    : A_EAC3
    Duration                    : 1 h 28 min
    Bit rate mode               : Constant
    Bit rate                    : 640 kb/s
    Channel(s)                  : 6 channels
    Channel layout              : L R C LFE Ls Rs
    Sampling rate               : 48.0 kHz
    Frame rate                  : 31.250 FPS (1536 SPF)
    Compression mode            : Lossy
    Stream size                 : 405 MiB (11%)
    Title                       : Español latino / E-AC3 [CinemaniaHDD]
    Language                    : Spanish
    Service kind                : Complete Main
    Default                     : No
    Forced                      : No

    Audio #3
    ID                          : 4
    Format                      : E-AC-3
    Format/Info                 : Enhanced AC-3
    Commercial name             : Dolby Digital Plus
    Codec ID                    : A_EAC3
    Duration                    : 1 h 28 min
    Bit rate mode               : Constant
    Bit rate                    : 640 kb/s
    Channel(s)                  : 6 channels
    Channel layout              : L R C LFE Ls Rs
    Sampling rate               : 48.0 kHz
    Frame rate                  : 31.250 FPS (1536 SPF)
    Compression mode            : Lossy
    Stream size                 : 405 MiB (11%)
    Title                       : Francés [CinemaniaHDD]
    Language                    : French
    Service kind                : Complete Main
    Default                     : No
    Forced                      : No

    Text #1
    ID                          : 5
    Format                      : UTF-8
    Codec ID                    : S_TEXT/UTF8
    Codec ID/Info               : UTF-8 Plain Text
    Duration                    : 5 min 43 s
    Bit rate                    : 0 b/s
    Count of elements           : 2
    Stream size                 : 29.0 Bytes (0%)
    Title                       : Forzados [CinemaniaHDD]
    Language                    : Spanish
    Default                     : Yes
    Forced                      : Yes

    Text #2
    ID                          : 6
    Format                      : UTF-8
    Codec ID                    : S_TEXT/UTF8
    Codec ID/Info               : UTF-8 Plain Text
    Duration                    : 1 h 21 min
    Bit rate                    : 65 b/s
    Count of elements           : 1266
    Stream size                 : 39.2 KiB (0%)
    Title                       : Español Latino [CinemaniaHDD]
    Language                    : Spanish
    Default                     : No
    Forced                      : No

    Text #3
    ID                          : 7
    Format                      : UTF-8
    Codec ID                    : S_TEXT/UTF8
    Codec ID/Info               : UTF-8 Plain Text
    Duration                    : 1 h 24 min
    Bit rate                    : 67 b/s
    Count of elements           : 1230
    Stream size                 : 42.1 KiB (0%)
    Title                       : Inglés [CinemaniaHDD]
    Language                    : English
    Default                     : No
    Forced                      : No

    Menu
    00:00:00.000                : 1. Studio Logos
    00:01:41.000                : Scene 2
    00:09:19.000                : Scene 3
    00:09:46.000                : Scene 4
    00:14:38.000                : Scene 5
    00:20:39.000                : Scene 6
    00:24:16.000                : Scene 7
    00:30:14.000                : Scene 8
    00:34:53.000                : Scene 9
    00:41:19.000                : Scene 10
    00:47:56.000                : Scene 11
    00:54:20.000                : Scene 12
    00:56:51.000                : Scene 13
    01:04:40.000                : Scene 14
    01:10:11.000                : Scene 15
    01:16:45.000                : Scene 16
    01:24:43.000                : 17. End Credits
    01:28:19.000                : Scene 18

     

  • Peso: 3.47 GiB

Sinopsis

París, 1950. El Detective Maigret está a cargo de una intensa investigación cuando encuentran el cuerpo de una mujer, en medio de una plaza Parisina. Nadie parece recordarla o si quiera conocerla, hasta que un día conoce una misteriosa mujer, llamada “Betty”, en quien el inspector cree lo ayudará a resolver el caso.

Ficha técnica

Video trailer de la película

Enlaces de descarga

Rip de Bluray

Descargar Maigret (2022) AMZN WEB-DL 1080p Latino




Aportes de DPeliculasHDmega la pass es:dpeliculashdmega.org Aportes de CinemaniaHD la pass es:cinemaniahdd.com Aportes recientes:cinemaniahdd.net
Guardado en : Drama , Misterio

Películas relacionadas

descargar Maigret (2022) AMZN WEB-DL 1080p Latino 1080p 1080p gratis, Maigret (2022) AMZN WEB-DL 1080p Latino 1080p mega 1 link, Maigret (2022) AMZN WEB-DL 1080p Latino 1080p pelicula completa, descargar Maigret (2022) AMZN WEB-DL 1080p Latino 1080p gratis en mega.

Maigret (2022) AMZN WEB-DL 1080p Latino pelicula full hd, Maigret (2022) AMZN WEB-DL 1080p Latino mega latino, Maigret (2022) AMZN WEB-DL 1080p Latino 4k latino, Maigret (2022) AMZN WEB-DL 1080p Latino pelicula completa, Maigret (2022) AMZN WEB-DL 1080p Latino descargar gratis, descargar Maigret (2022) AMZN WEB-DL 1080p Latino pelicula latino, Maigret (2022) AMZN WEB-DL 1080p Latino 1 link mega, Maigret (2022) AMZN WEB-DL 1080p Latino 1 link google drive, Maigret (2022) AMZN WEB-DL 1080p Latino hd 1080p latino.
Comentarios 0