Magnum .44 (1973) Full 1080p Latino

434 vistas
1 estrella2 estrellas3 estrellas4 estrellas5 estrellas (Ninguna valoración todavía)
Cargando…

Información de Magnum .44 (1973) Full 1080p Latino

Datos de la película

  • Calidad: Full 1080p
  • Audio: Español Latino AC3 2.0 BLURAY - Ingles AC3 5.1 BLURAY
  • Subtitulos: Español Latino PGS - Ingles PGS
  • Resolución: 1920x1080p
  • Formato: MKV
  • Codec: H.264
  • Encoder: Dracarys
  • Mediainfo: Clic para Mostrar Datos Ver
  • Format                                   : Matroska
    Format version                           : Version 4 / Version 2
    File size                                : 9.47 GiB
    Duration                                 : 2 h 2 min
    Overall bit rate                         : 11.1 Mb/s
    Movie name                               : CinemaniaHDD.net
    Encoded date                             : UTC 2018-11-27 18:13:17 / UTC 2018-11-24T15:20:02Z
    Writing application                      : mkvmerge v15.0.0 ('Duel with the Devil') 64-bit
    Writing library                          : libebml v1.3.5 + libmatroska v1.4.5 / Lavf57.7.2

    Video
    ID                                       : 1
    Format                                   : AVC
    Format/Info                              : Advanced Video Codec
    Format profile                           : High@L4.1
    Format settings                          : CABAC / 4 Ref Frames
    Format settings, CABAC                   : Yes
    Format settings, RefFrames               : 4 frames
    Codec ID                                 : V_MPEG4/ISO/AVC
    Duration                                 : 2 h 2 min
    Bit rate                                 : 10.0 Mb/s
    Width                                    : 1 920 pixels
    Height                                   : 1 080 pixels
    Display aspect ratio                     : 16:9
    Frame rate mode                          : Constant
    Frame rate                               : 23.976 (24000/1001) FPS
    Color space                              : YUV
    Chroma subsampling                       : 4:2:0
    Bit depth                                : 8 bits
    Scan type                                : Progressive
    Bits/(Pixel*Frame)                       : 0.201
    Stream size                              : 8.57 GiB (90%)
    Writing library                          : x264 core 148 r2708 86b7198
    Encoding settings                        : cabac=1 / ref=4 / deblock=1:0:0 / analyse=0x3:0x133 / me=esa / subme=10 / psy=1 / psy_rd=1.00:0.00 / mixed_ref=1 / me_range=24 / chroma_me=1 / trellis=2 / 8x8dct=1 / cqm=0 / deadzone=21,11 / fast_pskip=1 / chroma_qp_offset=-2 / threads=34 / lookahead_threads=5 / sliced_threads=0 / nr=0 / decimate=1 / interlaced=0 / bluray_compat=0 / constrained_intra=0 / bframes=8 / b_pyramid=2 / b_adapt=2 / b_bias=0 / direct=3 / weightb=1 / open_gop=0 / weightp=2 / keyint=240 / keyint_min=24 / scenecut=40 / intra_refresh=0 / rc_lookahead=60 / rc=crf / mbtree=1 / crf=20.0 / qcomp=0.60 / qpmin=0 / qpmax=69 / qpstep=4 / vbv_maxrate=62500 / vbv_bufsize=78125 / crf_max=0.0 / nal_hrd=none / filler=0 / ip_ratio=1.40 / aq=1:1.00
    Language                                 : English
    Default                                  : Yes
    Forced                                   : No
    Color range                              : Limited
    Color primaries                          : BT.709
    Transfer characteristics                 : BT.709
    Matrix coefficients                      : BT.709
    Statistics Tags Issue                    : mkvmerge v15.0.0 ('Duel with the Devil') 64-bit 2018-11-27 18:13:17 / mkvmerge v15.0.0 ('Duel with the Devil') 64-bit 2018-11-27 18:13:17 / UTC 2018-11-24T15:20:02Z
    FromStats_BitRate                        : 10206907
    FromStats_Duration                       : 02:02:33.722000000
    FromStats_FrameCount                     : 176313
    FromStats_StreamSize                     : 9382344860

    Audio #1
    ID                                       : 2
    Format                                   : AC-3
    Format/Info                              : Audio Coding 3
    Mode                                     : Dolby Digital
    Format settings, Endianness              : Big
    Codec ID                                 : A_AC3
    Duration                                 : 2 h 2 min
    Bit rate mode                            : Constant
    Bit rate                                 : 192 kb/s
    Channel(s)                               : 2 channels
    Channel positions                        : Front: L R
    Sampling rate                            : 48.0 kHz
    Frame rate                               : 31.250 FPS (1536 SPF)
    Bit depth                                : 16 bits
    Compression mode                         : Lossy
    Stream size                              : 168 MiB (2%)
    Language                                 : Spanish
    Service kind                             : Complete Main
    Default                                  : Yes
    Forced                                   : No
    Statistics Tags Issue                    : mkvmerge v15.0.0 ('Duel with the Devil') 64-bit 2018-11-27 18:13:17 / mkvmerge v15.0.0 ('Duel with the Devil') 64-bit 2018-11-27 18:13:17 / UTC 2018-11-24T15:20:02Z
    FromStats_BitRate                        : 192000
    FromStats_Duration                       : 02:02:33.728000000
    FromStats_FrameCount                     : 229804
    FromStats_StreamSize                     : 176489472

    Audio #2
    ID                                       : 3
    Format                                   : AC-3
    Format/Info                              : Audio Coding 3
    Format settings, Endianness              : Big
    Codec ID                                 : A_AC3
    Duration                                 : 2 h 2 min
    Bit rate mode                            : Constant
    Bit rate                                 : 640 kb/s
    Channel(s)                               : 6 channels
    Channel positions                        : Front: L C R, Side: L R, LFE
    Sampling rate                            : 48.0 kHz
    Frame rate                               : 31.250 FPS (1536 SPF)
    Bit depth                                : 16 bits
    Compression mode                         : Lossy
    Stream size                              : 561 MiB (6%)
    Language                                 : English
    Service kind                             : Complete Main
    Default                                  : No
    Forced                                   : No
    Statistics Tags Issue                    : mkvmerge v15.0.0 ('Duel with the Devil') 64-bit 2018-11-27 18:13:17 / mkvmerge v15.0.0 ('Duel with the Devil') 64-bit 2018-11-27 18:13:17 / UTC 2018-11-24T15:20:02Z
    FromStats_BitRate                        : 640000
    FromStats_Duration                       : 02:02:33.728000000
    FromStats_FrameCount                     : 229804
    FromStats_StreamSize                     : 588298240

    Text #1
    ID                                       : 4
    Format                                   : PGS
    Muxing mode                              : zlib
    Codec ID                                 : S_HDMV/PGS
    Codec ID/Info                            : Picture based subtitle format used on BDs/HD-DVDs
    Language                                 : English
    Default                                  : No
    Forced                                   : No
    Statistics Tags Issue                    : mkvmerge v15.0.0 ('Duel with the Devil') 64-bit 2018-11-27 18:13:17 / mkvmerge v15.0.0 ('Duel with the Devil') 64-bit 2018-11-27 18:13:17 / UTC 2018-11-24T15:20:02Z
    FromStats_BitRate                        : 23766
    FromStats_Duration                       : 02:00:16.459000000
    FromStats_FrameCount                     : 1872
    FromStats_StreamSize                     : 21438595

    Text #2
    ID                                       : 5
    Format                                   : PGS
    Muxing mode                              : zlib
    Codec ID                                 : S_HDMV/PGS
    Codec ID/Info                            : Picture based subtitle format used on BDs/HD-DVDs
    Language                                 : Spanish
    Default                                  : No
    Forced                                   : No
    Statistics Tags Issue                    : mkvmerge v15.0.0 ('Duel with the Devil') 64-bit 2018-11-27 18:13:17 / mkvmerge v15.0.0 ('Duel with the Devil') 64-bit 2018-11-27 18:13:17 / UTC 2018-11-24T15:20:02Z
    FromStats_BitRate                        : 21206
    FromStats_Duration                       : 02:02:07.737000000
    FromStats_FrameCount                     : 1897
    FromStats_StreamSize                     : 19424645

    Menu
    00:00:00.000                             : :Chapter 1
    00:02:27.314                             : :Chapter 2
    00:09:30.737                             : :Chapter 3
    00:12:53.940                             : :Chapter 4
    00:20:00.032                             : :Chapter 5
    00:22:04.824                             : :Chapter 6
    00:25:55.220                             : :Chapter 7
    00:28:26.538                             : :Chapter 8
    00:33:19.664                             : :Chapter 9
    00:39:09.848                             : :Chapter 10
    00:43:39.283                             : :Chapter 11
    00:46:46.804                             : :Chapter 12
    00:49:17.288                             : :Chapter 13
    00:51:24.582                             : :Chapter 14
    00:54:18.255                             : :Chapter 15
    01:00:35.799                             : :Chapter 16
    01:05:28.925                             : :Chapter 17
    01:09:16.986                             : :Chapter 18
    01:11:29.285                             : :Chapter 19
    01:16:59.949                             : :Chapter 20
    01:18:37.880                             : :Chapter 21
    01:21:13.369                             : :Chapter 22
    01:27:14.896                             : :Chapter 23
    01:28:44.319                             : :Chapter 24
    01:31:13.134                             : :Chapter 25
    01:33:42.951                             : :Chapter 26
    01:36:28.616                             : :Chapter 27
    01:39:48.816                             : :Chapter 28
    01:43:30.705                             : :Chapter 29
    01:46:19.623                             : :Chapter 30
    01:48:18.826                             : :Chapter 31
    01:50:28.622                             : :Chapter 32
    01:54:13.680                             : :Chapter 33
    01:56:13.633                             : :Chapter 34
    01:58:23.597                             : :Chapter 35
    02:01:31.117                             : :Chapter 36

     

  • Peso: 9.47 GiB

Sinopsis

Los principales asesinos de la ciudad están siendo asesinados en San Francisco. Uno a uno, los criminales que han escapado de una acción judicial están recibiendo la justicia que merecen, un tipo de justicia que haría pensar que el detective de homicidios Harry Callahan está utilizando sus métodos implacables. Pero los asesinos han juzgado mal a Harry, que deberá enfrentarse esta vez a un inesperado escuadrón de la muerte que lleva placa policial. Su enemigo verdadero es el sistema. Pero Harry ha jurado proteger el sistema con su Magnum 44.

Ficha técnica

Video trailer de la película

Enlaces de descarga

Rip de Bluray

Descargar Magnum .44 (1973) Full 1080p Latino




Aportes de DPeliculasHDmega la pass es:dpeliculashdmega.org Aportes de CinemaniaHD la pass es:cinemaniahdd.com

Películas relacionadas

  • El Depredador (2018) Full 1080p Latino ( PLACEBO)

    2018
    El Depredador (2018) Full 1080p Latino ( PLACEBO)

    5.0 1h 41m 2018

    El Depredador  Full HD Latino Torrent Cuando el pequeño Rory (Jacob Tremblay) activa accidentalmente...

    Director: Shane Black

    Género: Acción

    Actores: Yvonne Strahovski

  • Blood Brother (2018) WEBDL 1080p Latino

    2018
    Blood Brother (2018) WEBDL 1080p Latino

    0.0 1h 30m 2018

    El hermano de sangre se desarrolla en las calles de una ciudad en decadencia, donde un convicto recientemente...

    Director: John Pogue

    Género: Acción

    Actores: Trey Songz

  • Duro de matar 4.0 (2007) Full 1080p Latino

    2007
    Duro de matar 4.0 (2007) Full 1080p Latino

    5.0 2h 8m 2007

    En Estados Unidos, la infraestructura de ordenadores que controla todo tipo de comunicaciones, transportes...

    Director: Len Wiseman

    Género: Acción

    Actores: Zeljko Ivanek

Comentarios 0