×

¿Problemas para descargar con Mozilla, EDGE? Deshabilita la opción "Abrir vinculos en una pestaña nueva" tal como lo muestra ésta imagen.

Madres Paralelas (2021) REMUX 1080p Castellano

178 vistas

Información de Madres Paralelas (2021) REMUX 1080p Castellano

Datos de la película

  • Calidad: Full 1080p
  • Audio: Español DTS 5.1 BLURAY
  • Subtitulos: Español PGS
  • Resolución: 1920x1080p
  • Formato: MKV
  • Codec: H.264
  • Encoder: Melkor
  • Mediainfo: Clic para Mostrar Datos Ver
  • Madres Paralelas (2021) REMUX 1080p Cast.mkv
    Format                      : Matroska
    Format version              : Version 4
    File size                   : 28.6 GiB
    Duration                    : 2 h 2 min
    Overall bit rate mode       : Variable
    Overall bit rate            : 33.4 Mb/s
    Movie name                  : Madres Paralelas (2021) CinemaniaHDD.Net
    Encoded date                : UTC 2022-03-25 18:14:35
    Writing application         : mkvmerge v56.1.0 ('My Friend') 64-bit
    Writing library             : libebml v1.4.2 + libmatroska v1.6.4
    Attachments                 : CINEMANIAHD.png

    Video
    ID                          : 1
    Format                      : AVC
    Format/Info                 : Advanced Video Codec
    Format profile              : High@L4.1
    Format settings             : CABAC / 4 Ref Frames
    Format settings, CABAC      : Yes
    Format settings, Reference  : 4 frames
    Codec ID                    : V_MPEG4/ISO/AVC
    Duration                    : 2 h 2 min
    Bit rate mode               : Variable
    Bit rate                    : 28.0 Mb/s
    Maximum bit rate            : 36.0 Mb/s
    Width                       : 1 920 pixels
    Height                      : 1 080 pixels
    Display aspect ratio        : 16:9
    Frame rate mode             : Constant
    Frame rate                  : 24.000 FPS
    Standard                    : NTSC
    Color space                 : YUV
    Chroma subsampling          : 4:2:0
    Bit depth                   : 8 bits
    Scan type                   : Progressive
    Bits/(Pixel*Frame)          : 0.563
    Stream size                 : 24.0 GiB (84%)
    Title                       : REMUX HD1080p [CinemaniaHDD]
    Default                     : Yes
    Forced                      : Yes
    Color range                 : Limited
    Color primaries             : BT.709
    Transfer characteristics    : BT.709
    Matrix coefficients         : BT.709

    Audio #1
    ID                          : 2
    Format                      : DTS XLL
    Format/Info                 : Digital Theater Systems
    Commercial name             : DTS-HD Master Audio
    Codec ID                    : A_DTS
    Duration                    : 2 h 2 min
    Bit rate mode               : Variable
    Bit rate                    : 3 828 kb/s
    Channel(s)                  : 6 channels
    Channel layout              : C L R Ls Rs LFE
    Sampling rate               : 48.0 kHz
    Frame rate                  : 93.750 FPS (512 SPF)
    Bit depth                   : 24 bits
    Compression mode            : Lossless
    Stream size                 : 3.28 GiB (11%)
    Title                       : Español [CinemaniaHDD]
    Language                    : Spanish
    Default                     : No
    Forced                      : No

    Audio #2
    ID                          : 3
    Format                      : DTS
    Format/Info                 : Digital Theater Systems
    Codec ID                    : A_DTS
    Duration                    : 2 h 2 min
    Bit rate mode               : Constant
    Bit rate                    : 1 509 kb/s
    Channel(s)                  : 6 channels
    Channel layout              : C L R Ls Rs LFE
    Sampling rate               : 48.0 kHz
    Frame rate                  : 93.750 FPS (512 SPF)
    Bit depth                   : 24 bits
    Compression mode            : Lossy
    Stream size                 : 1.29 GiB (5%)
    Title                       : Español Core DTS [CinemaniaHDD]
    Language                    : Spanish
    Default                     : Yes
    Forced                      : Yes

    Text
    ID                          : 4
    Format                      : PGS
    Muxing mode                 : zlib
    Codec ID                    : S_HDMV/PGS
    Codec ID/Info               : Picture based subtitle format used on BDs/HD-DVDs
    Duration                    : 1 h 54 min
    Bit rate                    : 35.4 kb/s
    Count of elements           : 3780
    Stream size                 : 29.0 MiB (0%)
    Title                       : Español-PGS [CinemaniaHDD]
    Language                    : Spanish
    Default                     : No
    Forced                      : No

    Menu
    00:00:00.000                : :Chapter 01
    00:10:12.000                : :Chapter 02
    00:20:12.917                : :Chapter 03
    00:31:32.292                : :Chapter 04
    00:39:56.333                : :Chapter 05
    00:51:03.833                : :Chapter 06
    01:01:37.167                : :Chapter 07
    01:12:11.042                : :Chapter 08
    01:21:16.292                : :Chapter 09
    01:31:51.875                : :Chapter 10
    01:41:13.417                : :Chapter 11
    01:52:59.292                : :Chapter 12

  • Peso: 28.6 GiB

Sinopsis

Descargar Madres Paralelas (2021) REMUX 1080p Castellano. Dos mujeres solteras que se han quedado embarazadas por accidente y que están a punto de dar a luz coinciden en una habitación de hospital: Janis, de mediana edad, no se arrepiente y es feliz; Ana, una adolescente, se siente arrepentida y asustada.

Nota: Disponible Solo Para VIP!!!

Ficha técnica

Video trailer de la película

Enlaces de descarga

Rip de Bluray

Descargar Madres Paralelas (2021) REMUX 1080p Castellano


Aportes de DPeliculasHDmega la pass es:dpeliculashdmega.org Aportes de CinemaniaHD la pass es:cinemaniahdd.com
Guardado en : Drama , Remux

Películas relacionadas

descargar Madres Paralelas (2021) REMUX 1080p Castellano Full 1080p 1080p gratis, Madres Paralelas (2021) REMUX 1080p Castellano Full 1080p mega 1 link, Madres Paralelas (2021) REMUX 1080p Castellano Full 1080p pelicula completa, descargar Madres Paralelas (2021) REMUX 1080p Castellano Full 1080p gratis en mega.

Madres Paralelas (2021) REMUX 1080p Castellano pelicula full hd, Madres Paralelas (2021) REMUX 1080p Castellano mega latino, Madres Paralelas (2021) REMUX 1080p Castellano 4k latino, Madres Paralelas (2021) REMUX 1080p Castellano pelicula completa, Madres Paralelas (2021) REMUX 1080p Castellano descargar gratis, descargar Madres Paralelas (2021) REMUX 1080p Castellano pelicula latino, Madres Paralelas (2021) REMUX 1080p Castellano 1 link mega, Madres Paralelas (2021) REMUX 1080p Castellano 1 link google drive, Madres Paralelas (2021) REMUX 1080p Castellano hd 1080p latino.
Comentarios 0