×

¿Problemas para descargar con Mozilla, EDGE? Deshabilita la opción "Abrir vinculos en una pestaña nueva" tal como lo muestra ésta imagen.

Madres Paralelas (2021) HD 1080p Castellano

399 vistas

Información de Madres Paralelas (2021) HD 1080p Castellano

Datos de la película

  • Calidad: 1080p
  • Audio: Español AC3 5.1 BLURAY
  • Subtitulos: No
  • Resolución: 1920x1036p
  • Formato: MKV
  • Codec: H.264
  • Encoder: Melkor
  • Mediainfo: Clic para Mostrar Datos Ver
  • Madres Paralelas (2021) HD 1080p Cast.mkv
    Format                      : Matroska
    Format version              : Version 4
    File size                   : 3.37 GiB
    Duration                    : 2 h 2 min
    Overall bit rate            : 3 928 kb/s
    Movie name                  : Madres Paralelas (2021) CinemaniaHDD.Net
    Encoded date                : UTC 2022-03-25 18:24:55
    Writing application         : mkvmerge v56.1.0 ('My Friend') 64-bit
    Writing library             : libebml v1.4.2 + libmatroska v1.6.4
    Attachments                 : CINEMANIAHD.png

    Video
    ID                          : 1
    Format                      : AVC
    Format/Info                 : Advanced Video Codec
    Format profile              : High@L4.1
    Format settings             : CABAC / 4 Ref Frames
    Format settings, CABAC      : Yes
    Format settings, Reference  : 4 frames
    Codec ID                    : V_MPEG4/ISO/AVC
    Duration                    : 2 h 2 min
    Bit rate                    : 3 500 kb/s
    Width                       : 1 920 pixels
    Height                      : 1 036 pixels
    Display aspect ratio        : 1.85:1
    Frame rate mode             : Constant
    Frame rate                  : 24.000 FPS
    Color space                 : YUV
    Chroma subsampling          : 4:2:0
    Bit depth                   : 8 bits
    Scan type                   : Progressive
    Bits/(Pixel*Frame)          : 0.073
    Stream size                 : 2.98 GiB (89%)
    Title                       : HD1080p [CinemaniaHDD]
    Writing library             : x264 core 163 r3059 b684ebe0
    Encoding settings           : cabac=1 / ref=4 / deblock=1:-1:-1 / analyse=0x3:0x133 / me=umh / subme=9 / psy=1 / psy_rd=1.00:0.15 / mixed_ref=1 / me_range=16 / chroma_me=1 / trellis=2 / 8x8dct=1 / cqm=0 / deadzone=21,11 / fast_pskip=1 / chroma_qp_offset=-3 / threads=24 / lookahead_threads=2 / sliced_threads=0 / nr=0 / decimate=1 / interlaced=0 / bluray_compat=0 / constrained_intra=0 / bframes=3 / b_pyramid=2 / b_adapt=2 / b_bias=0 / direct=3 / weightb=1 / open_gop=0 / weightp=2 / keyint=240 / keyint_min=24 / scenecut=40 / intra_refresh=0 / rc_lookahead=60 / rc=abr / mbtree=1 / bitrate=3500 / ratetol=1.0 / qcomp=0.60 / qpmin=0 / qpmax=69 / qpstep=4 / vbv_maxrate=62500 / vbv_bufsize=78125 / nal_hrd=none / filler=0 / ip_ratio=1.40 / aq=1:1.00
    Default                     : Yes
    Forced                      : Yes
    Color range                 : Limited
    Color primaries             : BT.709
    Transfer characteristics    : BT.709
    Matrix coefficients         : BT.709

    Audio
    ID                          : 2
    Format                      : AC-3
    Format/Info                 : Audio Coding 3
    Commercial name             : Dolby Digital
    Codec ID                    : A_AC3
    Duration                    : 2 h 2 min
    Bit rate mode               : Constant
    Bit rate                    : 448 kb/s
    Channel(s)                  : 6 channels
    Channel layout              : L R C LFE Ls Rs
    Sampling rate               : 48.0 kHz
    Frame rate                  : 31.250 FPS (1536 SPF)
    Compression mode            : Lossy
    Delay relative to video     : -5 ms
    Stream size                 : 393 MiB (11%)
    Title                       : Español [CinemaniaHDD]
    Language                    : Spanish
    Service kind                : Complete Main
    Default                     : Yes
    Forced                      : Yes

    Menu
    00:00:00.000                : :Chapter 01
    00:10:12.000                : :Chapter 02
    00:20:12.917                : :Chapter 03
    00:31:32.292                : :Chapter 04
    00:39:56.333                : :Chapter 05
    00:51:03.833                : :Chapter 06
    01:01:37.167                : :Chapter 07
    01:12:11.042                : :Chapter 08
    01:21:16.292                : :Chapter 09
    01:31:51.875                : :Chapter 10
    01:41:13.417                : :Chapter 11
    01:52:59.292                : :Chapter 12

  • Peso: 3.37 GiB

Sinopsis

Descargar Madres Paralelas (2021) HD 1080p Castellano. Dos mujeres solteras que se han quedado embarazadas por accidente y que están a punto de dar a luz coinciden en una habitación de hospital: Janis, de mediana edad, no se arrepiente y es feliz; Ana, una adolescente, se siente arrepentida y asustada.

Ficha técnica

Video trailer de la película

Enlaces de descarga

Rip de Bluray

Descargar Madres Paralelas (2021) HD 1080p Castellano




Aportes de DPeliculasHDmega la pass es:dpeliculashdmega.org Aportes de CinemaniaHD la pass es:cinemaniahdd.com
Guardado en : Drama , HD 1080p

Películas relacionadas

  • Zola (2020) HD 1080p Latino

    Zola (2020) HD 1080p Latino

    2020
    Zola (2020) HD 1080p Latino

    1h 26m 2020

    Descargar Zola (2020) HD 1080p Latino. Una camarera accede a acompañar a una bailarina exótica, su...

    Director: Sheri Davani

    Género: Comedia

    Actores: Ts Madison

  • Hocus Pocus: Abracadabra (1993) 1080p Latino

    Hocus Pocus: Abracadabra (1993) 1080p Latino

    1993
    Hocus Pocus: Abracadabra (1993) 1080p Latino

    1h 36m 1993

    Descargar Hocus Pocus: Abracadabra (1993) 1080p Latino. Tres brujas del siglo XII son invocadas durante...

    Director: Kenny Ortega

    Género: Comedia

    Actores: Vinessa Shaw

  • Togo (2022) NF WEB-DL 1080p Latino

    Togo (2022) NF WEB-DL 1080p Latino

    2022
    Togo (2022) NF WEB-DL 1080p Latino

    1h 35m 2022

    Descargar Togo (2022) NF WEB-DL 1080p Latino. Los narcos de poca monta están copando las calles de Montevideo...

    Director: Adrián Caetano

    Género: Crimen

    Actores: Tito Prieto

descargar Madres Paralelas (2021) HD 1080p Castellano 1080p 1080p gratis, Madres Paralelas (2021) HD 1080p Castellano 1080p mega 1 link, Madres Paralelas (2021) HD 1080p Castellano 1080p pelicula completa, descargar Madres Paralelas (2021) HD 1080p Castellano 1080p gratis en mega.

Madres Paralelas (2021) HD 1080p Castellano pelicula full hd, Madres Paralelas (2021) HD 1080p Castellano mega latino, Madres Paralelas (2021) HD 1080p Castellano 4k latino, Madres Paralelas (2021) HD 1080p Castellano pelicula completa, Madres Paralelas (2021) HD 1080p Castellano descargar gratis, descargar Madres Paralelas (2021) HD 1080p Castellano pelicula latino, Madres Paralelas (2021) HD 1080p Castellano 1 link mega, Madres Paralelas (2021) HD 1080p Castellano 1 link google drive, Madres Paralelas (2021) HD 1080p Castellano hd 1080p latino.
Comentarios 0