×

¿Problemas para descargar con Mozilla, EDGE? Deshabilita la opción "Abrir vinculos en una pestaña nueva" tal como lo muestra ésta imagen.

Madres (2021) AMZN WEB-DL 1080p Latino

109 vistas

Información de Madres (2021) AMZN WEB-DL 1080p Latino

Datos de la película

  • Calidad: 1080p
  • Audio: Español Latino AC3 5.1 WEB-DL - Ingles AC3 5.1 WEB-DL
  • Subtitulos: Español Latino SRT- FORZADOS SRT
  • Resolución: 1920x800
  • Formato: MKV
  • Codec: H.264
  • Encoder: cinemaniahdd
  • Mediainfo: Clic para Mostrar Datos Ver
  • Madres (2021) AMZN WEB-DL 1080p Latino [CNMNHDD].mkv
    Format                      : Matroska
    Format version              : Version 4
    File size                   : 5.79 GiB
    Duration                    : 1 h 23 min
    Overall bit rate            : 9 904 kb/s
    Movie name                  : Madres (2021) - CinemaniaHDD.Net
    Encoded date                : UTC 2021-10-08 01:04:12
    Writing application         : mkvmerge v56.1.0 ('My Friend') 64-bit
    Writing library             : libebml v1.4.2 + libmatroska v1.6.4

    Video
    ID                          : 1
    Format                      : AVC
    Format/Info                 : Advanced Video Codec
    Format profile              : High@L4
    Format settings             : CABAC / 4 Ref Frames
    Format settings, CABAC      : Yes
    Format settings, Reference  : 4 frames
    Codec ID                    : V_MPEG4/ISO/AVC
    Duration                    : 1 h 23 min
    Bit rate mode               : Constant
    Bit rate                    : 7 981 kb/s
    Nominal bit rate            : 10 000 kb/s
    Width                       : 1 920 pixels
    Height                      : 800 pixels
    Display aspect ratio        : 2.40:1
    Frame rate mode             : Constant
    Frame rate                  : 23.976 (24000/1001) FPS
    Color space                 : YUV
    Chroma subsampling          : 4:2:0
    Bit depth                   : 8 bits
    Scan type                   : Progressive
    Bits/(Pixel*Frame)          : 0.217
    Stream size                 : 4.66 GiB (81%)
    Title                       : CinemaniaHDD
    Language                    : Spanish
    Default                     : No
    Forced                      : No
    Color range                 : Limited
    Color primaries             : BT.709
    Transfer characteristics    : BT.709
    Matrix coefficients         : BT.709

    Audio #1
    ID                          : 2
    Format                      : AC-3
    Format/Info                 : Audio Coding 3
    Commercial name             : Dolby Digital
    Codec ID                    : A_AC3
    Duration                    : 1 h 23 min
    Bit rate mode               : Constant
    Bit rate                    : 640 kb/s
    Channel(s)                  : 6 channels
    Channel layout              : L R C LFE Ls Rs
    Sampling rate               : 48.0 kHz
    Frame rate                  : 31.250 FPS (1536 SPF)
    Compression mode            : Lossy
    Stream size                 : 383 MiB (6%)
    Title                       : Español latino [CinemaniaHDD]
    Language                    : Spanish
    Service kind                : Complete Main
    Default                     : Yes
    Forced                      : No

    Audio #2
    ID                          : 3
    Format                      : E-AC-3
    Format/Info                 : Enhanced AC-3
    Commercial name             : Dolby Digital Plus
    Codec ID                    : A_EAC3
    Duration                    : 1 h 23 min
    Bit rate mode               : Constant
    Bit rate                    : 640 kb/s
    Channel(s)                  : 6 channels
    Channel layout              : L R C LFE Ls Rs
    Sampling rate               : 48.0 kHz
    Frame rate                  : 31.250 FPS (1536 SPF)
    Compression mode            : Lossy
    Stream size                 : 383 MiB (6%)
    Title                       : Inglés [CinemaniaHDD]
    Language                    : English
    Service kind                : Complete Main
    Default                     : No
    Forced                      : No

    Audio #3
    ID                          : 4
    Format                      : E-AC-3
    Format/Info                 : Enhanced AC-3
    Commercial name             : Dolby Digital Plus
    Codec ID                    : A_EAC3
    Duration                    : 1 h 23 min
    Bit rate mode               : Constant
    Bit rate                    : 640 kb/s
    Channel(s)                  : 6 channels
    Channel layout              : L R C LFE Ls Rs
    Sampling rate               : 48.0 kHz
    Frame rate                  : 31.250 FPS (1536 SPF)
    Compression mode            : Lossy
    Stream size                 : 383 MiB (6%)
    Title                       : Inglés / AC3 [CinemaniaHDD]
    Language                    : English
    Service kind                : Complete Main
    Default                     : No
    Forced                      : No

    Text #1
    ID                          : 5
    Format                      : UTF-8
    Codec ID                    : S_TEXT/UTF8
    Codec ID/Info               : UTF-8 Plain Text
    Duration                    : 1 h 22 min
    Bit rate                    : 3 b/s
    Count of elements           : 57
    Stream size                 : 2.18 KiB (0%)
    Title                       : Forzados [CinemaniaHDD]
    Language                    : Spanish
    Default                     : Yes
    Forced                      : Yes

    Text #2
    ID                          : 6
    Format                      : UTF-8
    Codec ID                    : S_TEXT/UTF8
    Codec ID/Info               : UTF-8 Plain Text
    Duration                    : 1 h 23 min
    Bit rate                    : 33 b/s
    Count of elements           : 658
    Stream size                 : 20.7 KiB (0%)
    Title                       : Español latino [CinemaniaHDD]
    Language                    : Spanish
    Default                     : No
    Forced                      : No

    Text #3
    ID                          : 7
    Format                      : UTF-8
    Codec ID                    : S_TEXT/UTF8
    Codec ID/Info               : UTF-8 Plain Text
    Duration                    : 1 h 23 min
    Bit rate                    : 45 b/s
    Count of elements           : 1154
    Stream size                 : 27.6 KiB (0%)
    Title                       : Inglés [CinemaniaHDD]
    Language                    : English
    Default                     : No
    Forced                      : No

    Menu
    00:00:00.000                : :Amazon Studios
    00:00:22.000                : :Scene 2
    00:00:39.000                : :Scene 3
    00:02:24.000                : :Scene 4
    00:09:13.000                : :Scene 5
    00:11:22.000                : :Scene 6
    00:14:28.000                : :Scene 7
    00:16:44.000                : :Scene 8
    00:20:50.000                : :Scene 9
    00:21:37.000                : :Scene 10
    00:25:05.000                : :Scene 11
    00:29:15.000                : :Scene 12
    00:32:55.000                : :Scene 13
    00:33:45.000                : :Scene 14
    00:36:20.000                : :Scene 15
    00:38:40.000                : :Scene 16
    00:42:21.000                : :Scene 17
    00:44:13.000                : :Scene 18
    00:49:58.000                : :Scene 19
    00:50:44.000                : :Scene 20
    00:51:53.000                : :Scene 21
    00:59:35.000                : :Scene 22
    01:01:05.000                : :Scene 23
    01:05:43.000                : :Scene 24
    01:08:55.000                : :Scene 25
    01:14:34.000                : :Scene 26
    01:19:18.000                : :Scene 27
    01:20:35.000                : :Scene 28
    01:21:33.000                : :Acknowledgement
    01:22:37.000                : :End Credits

     

  • Peso: 5.79 GiB

Sinopsis

En la década de los 70, una pareja mexicano-estadounidense que espera su primer hijo se muda a una comunidad de migrantes, en California, donde una serie de síntomas extraños y visiones aterradoras amenazan a su familia.

Ficha técnica

  • Titulo original: Madres
  • Fecha de lanzamiento: 08-10-2021
  • Director: Ryan Zaragoza
  • Género: Terror

Video trailer de la película

Enlaces de descarga

Rip de Bluray

Descargar Madres (2021) AMZN WEB-DL 1080p Latino




Aportes de DPeliculasHDmega la pass es:dpeliculashdmega.org Aportes de CinemaniaHD la pass es:cinemaniahdd.com
Guardado en : Terror

Películas relacionadas

descargar Madres (2021) AMZN WEB-DL 1080p Latino 1080p 1080p gratis, Madres (2021) AMZN WEB-DL 1080p Latino 1080p mega 1 link, Madres (2021) AMZN WEB-DL 1080p Latino 1080p pelicula completa, descargar Madres (2021) AMZN WEB-DL 1080p Latino 1080p gratis en mega.

Madres (2021) AMZN WEB-DL 1080p Latino pelicula full hd, Madres (2021) AMZN WEB-DL 1080p Latino mega latino, Madres (2021) AMZN WEB-DL 1080p Latino 4k latino, Madres (2021) AMZN WEB-DL 1080p Latino pelicula completa, Madres (2021) AMZN WEB-DL 1080p Latino descargar gratis, descargar Madres (2021) AMZN WEB-DL 1080p Latino pelicula latino, Madres (2021) AMZN WEB-DL 1080p Latino 1 link mega, Madres (2021) AMZN WEB-DL 1080p Latino 1 link google drive, Madres (2021) AMZN WEB-DL 1080p Latino hd 1080p latino.
Comentarios 0