×

¿Problemas para descargar con Mozilla, EDGE? Deshabilita la opción "Abrir vinculos en una pestaña nueva" tal como lo muestra ésta imagen.

Madre! (2017) WEB-DL 1080p Latino

2.150 vistas

Información de Madre! (2017) WEB-DL 1080p Latino

madre 38071 poster

Datos de la película

  • Calidad: WEBDL
  • Audio: Español Latino AC3 2.0 iTunes - Ingles AC3 5.1 iTunes
  • Subtitulos: Español Latino SRT- FORZADOS SRT
  • Resolución: 1920X804
  • Formato: MKV
  • Codec: H.264
  • Encoder: Dracarys
  • Mediainfo: Clic para Mostrar Datos Ver
  • Format                                   : Matroska
    Format version                           : Version 4 / Version 2
    File size                                : 4.44 GiB
    Duration                                 : 2 h 1 min
    Overall bit rate                         : 5 227 kb/s
    Movie name                               : cinemaniahdd.net
    Encoded date                             : UTC 2017-12-05 07:08:45
    Writing application                      : mkvmerge v15.0.0 ('Duel with the Devil') 64-bit
    Writing library                          : libebml v1.3.5 + libmatroska v1.4.5

    Video
    ID                                       : 1
    Format                                   : AVC
    Format/Info                              : Advanced Video Codec
    Format profile                           : High@L4
    Format settings                          : CABAC / 5 Ref Frames
    Format settings, CABAC                   : Yes
    Format settings, RefFrames               : 5 frames
    Codec ID                                 : V_MPEG4/ISO/AVC
    Duration                                 : 2 h 1 min
    Bit rate                                 : 4 588 kb/s
    Width                                    : 1 920 pixels
    Height                                   : 804 pixels
    Display aspect ratio                     : 2.40:1
    Frame rate mode                          : Constant
    Frame rate                               : 23.976 FPS
    Color space                              : YUV
    Chroma subsampling                       : 4:2:0
    Bit depth                                : 8 bits
    Scan type                                : Progressive
    Bits/(Pixel*Frame)                       : 0.124
    Stream size                              : 3.90 GiB (88%)
    Title                                    : Madre! (2017) WEB-DL 1080p Latino
    Language                                 : English
    Default                                  : Yes
    Forced                                   : No
    Color range                              : Limited
    Color primaries                          : BT.709
    Transfer characteristics                 : BT.709
    Matrix coefficients                      : BT.709

    Audio #1
    ID                                       : 2
    Format                                   : AC-3
    Format/Info                              : Audio Coding 3
    Format settings, Endianness              : Big
    Codec ID                                 : A_AC3
    Duration                                 : 2 h 1 min
    Bit rate mode                            : Constant
    Bit rate                                 : 256 kb/s
    Channel(s)                               : 2 channels
    Channel positions                        : Front: L R
    Sampling rate                            : 48.0 kHz
    Frame rate                               : 31.250 FPS (1536 SPF)
    Bit depth                                : 16 bits
    Compression mode                         : Lossy
    Stream size                              : 222 MiB (5%)
    Language                                 : Spanish
    Service kind                             : Complete Main
    Default                                  : Yes
    Forced                                   : No

    Audio #2
    ID                                       : 3
    Format                                   : AC-3
    Format/Info                              : Audio Coding 3
    Format settings, Endianness              : Big
    Codec ID                                 : A_AC3
    Duration                                 : 2 h 1 min
    Bit rate mode                            : Constant
    Bit rate                                 : 384 kb/s
    Channel(s)                               : 6 channels
    Channel positions                        : Front: L C R, Side: L R, LFE
    Sampling rate                            : 48.0 kHz
    Frame rate                               : 31.250 FPS (1536 SPF)
    Bit depth                                : 16 bits
    Compression mode                         : Lossy
    Stream size                              : 333 MiB (7%)
    Language                                 : English
    Service kind                             : Complete Main
    Default                                  : No
    Forced                                   : No

    Text #1
    ID                                       : 4
    Format                                   : UTF-8
    Codec ID                                 : S_TEXT/UTF8
    Codec ID/Info                            : UTF-8 Plain Text
    Duration                                 : 2 h 0 min
    Bit rate                                 : 0 b/s
    Count of elements                        : 3
    Stream size                              : 47.0 Bytes (0%)
    Title                                    : Forzados
    Language                                 : Spanish
    Default                                  : Yes
    Forced                                   : Yes

    Text #2
    ID                                       : 5
    Format                                   : UTF-8
    Codec ID                                 : S_TEXT/UTF8
    Codec ID/Info                            : UTF-8 Plain Text
    Duration                                 : 2 h 0 min
    Bit rate                                 : 38 b/s
    Count of elements                        : 1148
    Stream size                              : 33.5 KiB (0%)
    Language                                 : Spanish
    Default                                  : No
    Forced                                   : No

    Menu
    00:00:00.000                             : en:1
    00:06:21.000                             : en:2
    00:10:19.000                             : en:3
    00:15:57.000                             : en:4
    00:21:35.000                             : en:5
    00:24:57.000                             : en:6
    00:31:28.000                             : en:7
    00:38:26.000                             : en:8
    00:44:53.000                             : en:9
    00:49:31.000                             : en:10
    00:53:39.000                             : en:11
    01:02:15.000                             : en:12
    01:08:19.000                             : en:13
    01:16:46.000                             : en:14
    01:20:25.000                             : en:15
    01:28:20.000                             : en:16
    01:38:02.000                             : en:17
    01:45:45.000                             : en:18
    01:49:41.000                             : en:19
    01:56:13.000                             : en:20

  • Peso: 4.44 GiB

Sinopsis

La película gira en torno a una pareja cuya relación se pone a prueba cuando reciben la visita inesperada de una serie de extraños invitados que hacen acto de presencia en su casa. Desde ese momento, su tranquila existencia quedará perturbada por completo.

Ficha técnica

Video trailer de la película

Enlaces de descarga

Rip de Bluray

Descargar Madre! (2017) WEB-DL 1080p Latino




Aportes de DPeliculasHDmega la pass es:dpeliculashdmega.org Aportes de CinemaniaHD la pass es:cinemaniahdd.com Aportes recientes:cinemaniahdd.net
Guardado en : Drama , Terror

Películas relacionadas

descargar Madre! (2017) WEB-DL 1080p Latino WEBDL 1080p gratis, Madre! (2017) WEB-DL 1080p Latino WEBDL mega 1 link, Madre! (2017) WEB-DL 1080p Latino WEBDL pelicula completa, descargar Madre! (2017) WEB-DL 1080p Latino WEBDL gratis en mega.

Madre! (2017) WEB-DL 1080p Latino pelicula full hd, Madre! (2017) WEB-DL 1080p Latino mega latino, Madre! (2017) WEB-DL 1080p Latino 4k latino, Madre! (2017) WEB-DL 1080p Latino pelicula completa, Madre! (2017) WEB-DL 1080p Latino descargar gratis, descargar Madre! (2017) WEB-DL 1080p Latino pelicula latino, Madre! (2017) WEB-DL 1080p Latino 1 link mega, Madre! (2017) WEB-DL 1080p Latino 1 link google drive, Madre! (2017) WEB-DL 1080p Latino hd 1080p latino.
Comentarios 6