×

¿Problemas para descargar con Mozilla, EDGE? Deshabilita la opción "Abrir vinculos en una pestaña nueva" tal como lo muestra ésta imagen.

Made in Abyss: El amanecer del viaje (2019) AMZN WEB-DL 1080p Latino

360 vistas

Información de Made in Abyss: El amanecer del viaje (2019) AMZN WEB-DL 1080p Latino

Datos de la película

  • Calidad: WEBDL
  • Audio: Se especifica abajo de la Sinopsis
  • Subtitulos: Español Latino SRT- FORZADOS SRT
  • Resolución: 1920x1080
  • Formato: MKV
  • Codec: H.264
  • Encoder: cinemaniahdd
  • Mediainfo: Clic para Mostrar Datos Ver
  • Made in Abyss, El amanecer del viaje (2019) AMZN WEB-DL 1080p Latino.mkv
    Format                      : Matroska
    Format version              : Version 4
    File size                   : 5.19 GiB
    Duration                    : 1 h 59 min
    Overall bit rate            : 6 240 kb/s
    Movie name                  : Made in Abyss, Parte 1 - El amanecer del viaje (2019) - CinemaniaHDD.Net
    Encoded date                : UTC 2020-05-21 01:52:49
    Writing application         : mkvmerge v42.0.0 ('Overtime') 64-bit
    Writing library             : libebml v1.3.10 + libmatroska v1.5.2

    Video
    ID                          : 1
    Format                      : AVC
    Format/Info                 : Advanced Video Codec
    Format profile              : High@L4.1
    Format settings             : CABAC / 4 Ref Frames
    Format settings, CABAC      : Yes
    Format settings, ReFrames   : 4 frames
    Codec ID                    : V_MPEG4/ISO/AVC
    Duration                    : 1 h 59 min
    Bit rate                    : 5 342 kb/s
    Width                       : 1 920 pixels
    Height                      : 1 080 pixels
    Display aspect ratio        : 16:9
    Frame rate mode             : Constant
    Frame rate                  : 23.976 (24000/1001) FPS
    Color space                 : YUV
    Chroma subsampling          : 4:2:0
    Bit depth                   : 8 bits
    Scan type                   : Progressive
    Bits/(Pixel*Frame)          : 0.107
    Stream size                 : 4.44 GiB (86%)
    Title                       : CinemaniaHDD
    Writing library             : x264 core 155 r2901 7d0ff22
    Encoding settings           : cabac=1 / ref=4 / deblock=1:1:1 / analyse=0x3:0x133 / me=umh / subme=10 / psy=1 / psy_rd=0.40:0.00 / mixed_ref=1 / me_range=24 / chroma_me=1 / trellis=2 / 8x8dct=1 / cqm=0 / deadzone=21,11 / fast_pskip=1 / chroma_qp_offset=-2 / threads=24 / lookahead_threads=6 / sliced_threads=0 / nr=0 / decimate=1 / interlaced=0 / bluray_compat=0 / constrained_intra=0 / bframes=10 / b_pyramid=2 / b_adapt=2 / b_bias=0 / direct=3 / weightb=1 / open_gop=0 / weightp=2 / keyint=250 / keyint_min=23 / scenecut=40 / intra_refresh=0 / rc_lookahead=60 / rc=crf / mbtree=1 / crf=10.0 / qcomp=0.60 / qpmin=0 / qpmax=69 / qpstep=4 / ip_ratio=1.40 / aq=1:0.60
    Default                     : Yes
    Forced                      : No

    Audio #1
    ID                          : 2
    Format                      : AC-3
    Format/Info                 : Audio Coding 3
    Commercial name             : Dolby Digital
    Codec ID                    : A_AC3
    Duration                    : 1 h 59 min
    Bit rate mode               : Constant
    Bit rate                    : 256 kb/s
    Channel(s)                  : 2 channels
    Channel layout              : L R
    Sampling rate               : 48.0 kHz
    Frame rate                  : 31.250 FPS (1536 SPF)
    Bit depth                   : 16 bits
    Compression mode            : Lossy
    Delay relative to video     : -21 ms
    Stream size                 : 218 MiB (4%)
    Title                       : Español latino [CinemaniaHDD]
    Language                    : Spanish
    Service kind                : Complete Main
    Default                     : Yes
    Forced                      : No

    Audio #2
    ID                          : 3
    Format                      : E-AC-3
    Format/Info                 : Enhanced AC-3
    Commercial name             : Dolby Digital Plus
    Codec ID                    : A_EAC3
    Duration                    : 1 h 59 min
    Bit rate mode               : Constant
    Bit rate                    : 640 kb/s
    Channel(s)                  : 6 channels
    Channel layout              : L R C LFE Ls Rs
    Sampling rate               : 48.0 kHz
    Frame rate                  : 31.250 FPS (1536 SPF)
    Compression mode            : Lossy
    Delay relative to video     : -21 ms
    Stream size                 : 545 MiB (10%)
    Title                       : Japones [CinemaniaHDD]
    Language                    : Japanese
    Service kind                : Complete Main
    Default                     : No
    Forced                      : No

    Text #1
    ID                          : 4
    Format                      : UTF-8
    Codec ID                    : S_TEXT/UTF8
    Codec ID/Info               : UTF-8 Plain Text
    Duration                    : 1 h 58 min
    Bit rate                    : 0 b/s
    Count of elements           : 18
    Stream size                 : 561 Bytes (0%)
    Title                       : Forzados [CinemaniaHDD]
    Language                    : Spanish
    Default                     : Yes
    Forced                      : Yes

    Text #2
    ID                          : 5
    Format                      : UTF-8
    Codec ID                    : S_TEXT/UTF8
    Codec ID/Info               : UTF-8 Plain Text
    Duration                    : 1 h 58 min
    Bit rate                    : 79 b/s
    Count of elements           : 1786
    Stream size                 : 69.0 KiB (0%)
    Title                       : Español latino [CinemaniaHDD]
    Language                    : Spanish
    Default                     : No
    Forced                      : No

     

  • Peso: 5.19 GiB

Sinopsis

El enigmático Abismo es un lugar implacable y mortal. A pesar de los peligros, todavía captura la imaginación de exploradores como Riko, que desea seguir los pasos de su madre y se entrena para convertirse en un Raider de Cavernas. Un día, recibe noticias de que su madre murió en el Abismo. Sin embargo, una nota misteriosa le dice a Riko que su madre aún podría estar viva. Con el compromiso de descubrir la verdad sobre el destino de su madre, Riko se embarca en un viaje con un robot robot humanoide llamado Reg. Juntos, descubrirán si tienen lo necesario para sobrevivir donde tantos otros han perecido.

Español Latino AC3 2.0 WEB-DL – Japones E-AC3 5.1 WEB-DL

Ficha técnica

Video trailer de la película

Enlaces de descarga

Rip de Bluray

Descargar Made in Abyss: El amanecer del viaje (2019) AMZN WEB-DL 1080p Latino




Aportes de DPeliculasHDmega la pass es:dpeliculashdmega.org Aportes de CinemaniaHD la pass es:cinemaniahdd.com

Películas relacionadas

  • Togo (2022) NF WEB-DL 1080p Latino

    Togo (2022) NF WEB-DL 1080p Latino

    2022
    Togo (2022) NF WEB-DL 1080p Latino

    1h 35m 2022

    Descargar Togo (2022) NF WEB-DL 1080p Latino. Los narcos de poca monta están copando las calles de Montevideo...

    Director: Adrián Caetano

    Género: Crimen

    Actores: Tito Prieto

  • El Ultimo Juego (2021) WEB-DL 1080p Latino

    El Ultimo Juego (2021) WEB-DL 1080p Latino

    2021
    El Ultimo Juego (2021) WEB-DL 1080p Latino

    1h 21m 2021

    Descargar El Ultimo Juego (2021) WEB-DL 1080p Latino. 6 extraños se despiertan dentro de una habitación...

    Director: John David Moffat IV

    Género: Drama

    Actores: Yasmin Irvine

descargar Made in Abyss: El amanecer del viaje (2019) AMZN WEB-DL 1080p Latino WEBDL 1080p gratis, Made in Abyss: El amanecer del viaje (2019) AMZN WEB-DL 1080p Latino WEBDL mega 1 link, Made in Abyss: El amanecer del viaje (2019) AMZN WEB-DL 1080p Latino WEBDL pelicula completa, descargar Made in Abyss: El amanecer del viaje (2019) AMZN WEB-DL 1080p Latino WEBDL gratis en mega.

Made in Abyss: El amanecer del viaje (2019) AMZN WEB-DL 1080p Latino pelicula full hd, Made in Abyss: El amanecer del viaje (2019) AMZN WEB-DL 1080p Latino mega latino, Made in Abyss: El amanecer del viaje (2019) AMZN WEB-DL 1080p Latino 4k latino, Made in Abyss: El amanecer del viaje (2019) AMZN WEB-DL 1080p Latino pelicula completa, Made in Abyss: El amanecer del viaje (2019) AMZN WEB-DL 1080p Latino descargar gratis, descargar Made in Abyss: El amanecer del viaje (2019) AMZN WEB-DL 1080p Latino pelicula latino, Made in Abyss: El amanecer del viaje (2019) AMZN WEB-DL 1080p Latino 1 link mega, Made in Abyss: El amanecer del viaje (2019) AMZN WEB-DL 1080p Latino 1 link google drive, Made in Abyss: El amanecer del viaje (2019) AMZN WEB-DL 1080p Latino hd 1080p latino.
Comentarios 0