×

¿Problemas para descargar con Mozilla, EDGE? Deshabilita la opción "Abrir vinculos en una pestaña nueva" tal como lo muestra ésta imagen.

Madame Web (2024) WEB-DL 4K UHD HDR Latino

66 vistas

Información de Madame Web (2024) WEB-DL 4K UHD HDR Latino

Datos de la película

  • Calidad: WEBDL
  • Audio: Español Latino AC3 5.1 WEB-DL - Ingles AC3 5.1 WEB-DL
  • Subtitulos: Español Latino SRT- FORZADOS SRT
  • Resolución: 3840x1606p
  • Formato: MKV
  • Codec: HEVC
  • Encoder: Melkor
  • Mediainfo: Clic para Mostrar Datos Ver
  • Madame Web (2024) WEB UHD HDR Latino.mkv
    Format                      : Matroska
    Format version              : Version 4
    File size                   : 20.3 GiB
    Duration                    : 1 h 56 min
    Overall bit rate            : 25.0 Mb/s
    Movie name                  : Madame Web (2024) CinemaniaHDD.Net
    Encoded date                : UTC 2024-03-15 06:31:46
    Writing application         : mkvmerge v56.1.0 ('My Friend') 64-bit
    Writing library             : libebml v1.4.2 + libmatroska v1.6.4
    Attachments                 : CINEMANIAHD.png
    Site                        : CinemaniaHDD.Net
    Uploader                    : Melkor

    Video
    ID                          : 1
    Format                      : HEVC
    Format/Info                 : High Efficiency Video Coding
    Format profile              : Main 10@L5@High
    HDR format                  : SMPTE ST 2086, HDR10 compatible
    Codec ID                    : V_MPEGH/ISO/HEVC
    Duration                    : 1 h 56 min
    Bit rate                    : 23.8 Mb/s
    Width                       : 3 840 pixels
    Height                      : 1 606 pixels
    Display aspect ratio        : 2.40:1
    Frame rate mode             : Constant
    Frame rate                  : 23.976 (24000/1001) FPS
    Color space                 : YUV
    Chroma subsampling          : 4:2:0 (Type 2)
    Bit depth                   : 10 bits
    Bits/(Pixel*Frame)          : 0.161
    Stream size                 : 19.3 GiB (95%)
    Title                       : Web 2160p HDR [CinemaniaHDD]
    Language                    : English
    Default                     : Yes
    Forced                      : No
    Color range                 : Limited
    Color primaries             : BT.2020
    Transfer characteristics    : PQ
    Matrix coefficients         : BT.2020 non-constant
    Mastering display color pri : BT.2020
    Mastering display luminance : min: 0.0050 cd/m2, max: 1000 cd/m2
    Maximum Content Light Level : 1809 cd/m2
    Maximum Frame-Average Light : 760 cd/m2

    Audio #1
    ID                          : 2
    Format                      : AC-3
    Format/Info                 : Audio Coding 3
    Commercial name             : Dolby Digital
    Codec ID                    : A_AC3
    Duration                    : 1 h 56 min
    Bit rate mode               : Constant
    Bit rate                    : 384 kb/s
    Channel(s)                  : 6 channels
    Channel layout              : L R C LFE Ls Rs
    Sampling rate               : 48.0 kHz
    Frame rate                  : 31.250 FPS (1536 SPF)
    Compression mode            : Lossy
    Stream size                 : 319 MiB (2%)
    Title                       : Español Latino [CinemaniaHDD]
    Language                    : Spanish
    Service kind                : Complete Main
    Default                     : Yes
    Forced                      : Yes

    Audio #2
    ID                          : 3
    Format                      : E-AC-3 JOC
    Format/Info                 : Enhanced AC-3 with Joint Object Coding
    Commercial name             : Dolby Digital Plus with Dolby Atmos
    Codec ID                    : A_EAC3
    Duration                    : 1 h 56 min
    Bit rate mode               : Constant
    Bit rate                    : 768 kb/s
    Channel(s)                  : 6 channels
    Channel layout              : L R C LFE Ls Rs
    Sampling rate               : 48.0 kHz
    Frame rate                  : 31.250 FPS (1536 SPF)
    Compression mode            : Lossy
    Stream size                 : 638 MiB (3%)
    Title                       : Ingles [CinemaniaHDD]
    Language                    : English
    Service kind                : Complete Main
    Default                     : No
    Forced                      : No
    Complexity index            : 16
    Number of dynamic objects   : 15
    Bed channel count           : 1 channel
    Bed channel configuration   : LFE

    Text #1
    ID                          : 4
    Format                      : UTF-8
    Codec ID                    : S_TEXT/UTF8
    Codec ID/Info               : UTF-8 Plain Text
    Duration                    : 1 h 54 min
    Bit rate                    : 0 b/s
    Count of elements           : 14
    Stream size                 : 609 Bytes (0%)
    Title                       : Forzados-SRT [CinemaniaHDD]
    Language                    : Spanish
    Default                     : Yes
    Forced                      : Yes

    Text #2
    ID                          : 5
    Format                      : UTF-8
    Codec ID                    : S_TEXT/UTF8
    Codec ID/Info               : UTF-8 Plain Text
    Duration                    : 1 h 54 min
    Bit rate                    : 48 b/s
    Count of elements           : 1490
    Stream size                 : 40.7 KiB (0%)
    Title                       : Español-SRT [CinemaniaHDD]
    Language                    : Spanish
    Default                     : No
    Forced                      : No

    Text #3
    ID                          : 6
    Format                      : UTF-8
    Codec ID                    : S_TEXT/UTF8
    Codec ID/Info               : UTF-8 Plain Text
    Duration                    : 1 h 47 min
    Bit rate                    : 59 b/s
    Count of elements           : 1609
    Stream size                 : 46.4 KiB (0%)
    Title                       : Ingles-SRT [CinemaniaHDD]
    Language                    : English
    Default                     : No
    Forced                      : No

  • Peso: 20.3 GiB

Sinopsis

Descargar Madame Web (2024) WEB-DL 4K UHD HDR Latino. Una historia de origen de la clarividente conocida como Madame Web, cuyas habilidades psíquicas le permiten ver dentro del mundo de las arañas.

Ficha técnica

Video trailer de la película

Enlaces de descarga

Rip de Bluray

Descargar Madame Web (2024) WEB-DL 4K UHD HDR Latino




Aportes de DPeliculasHDmega la pass es:dpeliculashdmega.org Aportes de CinemaniaHD la pass es:cinemaniahdd.com Aportes recientes:cinemaniahdd.net
Guardado en : 4K HDR , 4K UHD , Acción , Fantasía

Películas relacionadas

descargar Madame Web (2024) WEB-DL 4K UHD HDR Latino WEBDL 1080p gratis, Madame Web (2024) WEB-DL 4K UHD HDR Latino WEBDL mega 1 link, Madame Web (2024) WEB-DL 4K UHD HDR Latino WEBDL pelicula completa, descargar Madame Web (2024) WEB-DL 4K UHD HDR Latino WEBDL gratis en mega.

Madame Web (2024) WEB-DL 4K UHD HDR Latino pelicula full hd, Madame Web (2024) WEB-DL 4K UHD HDR Latino mega latino, Madame Web (2024) WEB-DL 4K UHD HDR Latino 4k latino, Madame Web (2024) WEB-DL 4K UHD HDR Latino pelicula completa, Madame Web (2024) WEB-DL 4K UHD HDR Latino descargar gratis, descargar Madame Web (2024) WEB-DL 4K UHD HDR Latino pelicula latino, Madame Web (2024) WEB-DL 4K UHD HDR Latino 1 link mega, Madame Web (2024) WEB-DL 4K UHD HDR Latino 1 link google drive, Madame Web (2024) WEB-DL 4K UHD HDR Latino hd 1080p latino.
Comentarios 0